<?xml version="1.0" standalone="no"?>
<!DOCTYPE svg PUBLIC "-//W3C//DTD SVG 1.1//EN" "http://www.w3.org/Graphics/SVG/1.1/DTD/svg11.dtd" >
<svg xmlns="http://www.w3.org/2000/svg" xmlns:xlink="http://www.w3.org/1999/xlink" version="1.1">
<metadata>
Created by FontForge 20150318 at Thu Jun 11 18:46:37 2015
 By uniteet7
HTF Gotham  Copr. 2003 The Hoefler Type Foundry, Inc. Info: www.typography.com
</metadata>
<defs>
<font id="GothamBlackItalic" horiz-adv-x="500" >
  <font-face 
    font-family="GothamBlackItalic"
    font-weight="900"
    font-style="italic"
    font-stretch="normal"
    units-per-em="1000"
    panose-1="2 0 6 3 4 0 0 9 0 4"
    ascent="800"
    descent="-200"
    x-height="541"
    cap-height="700"
    bbox="-145 -180 1311 932"
    underline-thickness="20"
    underline-position="-113"
    slope="-12"
    unicode-range="U+0020-FB02"
  />
<missing-glyph 
 />
    <glyph glyph-name="fi" unicode="fi" horiz-adv-x="719" 
d="M546 541h190l-145 -541h-190zM594 730h198l-38 -140h-198zM118 388h-64l41 153h63l3 11q25 99 82 142t150 43q35 0 64.5 -4.5t56.5 -13.5l-35 -133q-15 5 -32.5 8.5t-31.5 3.5q-29 0 -45 -12.5t-23 -38.5l-3 -9h122l-40 -150h-118l-105 -388h-190z" />
    <glyph glyph-name="fl" unicode="fl" horiz-adv-x="719" 
d="M597 730h190l-196 -730h-190zM118 388h-64l41 153h63l3 11q25 99 82 142t150 43q35 0 64.5 -4.5t56.5 -13.5l-35 -133q-15 5 -32.5 8.5t-31.5 3.5q-29 0 -45 -12.5t-23 -38.5l-3 -9h122l-40 -150h-118l-105 -388h-190z" />
    <glyph glyph-name=".notdef" 
 />
    <glyph glyph-name=".null" horiz-adv-x="0" 
 />
    <glyph glyph-name="nonmarkingreturn" horiz-adv-x="277" 
 />
    <glyph glyph-name="space" unicode=" " horiz-adv-x="277" 
 />
    <glyph glyph-name="exclam" unicode="!" horiz-adv-x="322" 
d="M35 170h198l-46 -170h-197zM145 615l23 85h217l-24 -85l-162 -387h-99z" />
    <glyph glyph-name="quotedbl" unicode="&#x22;" horiz-adv-x="540" 
d="M162 700h204l-1 -5l-198 -354h-100zM422 700h204l-1 -5l-198 -354h-101z" />
    <glyph glyph-name="numbersign" unicode="#" horiz-adv-x="697" 
d="M416 292l42 120h-135l-42 -120h135zM85 135h-82l36 161h103l39 112h-94l36 161h115l46 131h145l-46 -131h126l46 131h145l-46 -131h82l-36 -161h-102l-40 -112h95l-36 -161h-115l-48 -135h-145l48 135h-127l-47 -135h-145z" />
    <glyph glyph-name="dollar" unicode="$" horiz-adv-x="656" 
d="M348 152q40 2 60.5 16.5t20.5 40.5q0 16 -10 27t-39 22zM375 549q-43 0 -63 -16t-20 -39q0 -17 11.5 -27t41.5 -21zM208 9q-69 13 -127 42t-100 71l116 121q39 -32 78 -52.5t82 -29.5l37 122q-45 14 -80.5 30.5t-60.5 38.5t-38 51.5t-13 69.5q0 47 21.5 88.5t61 72
t95 48.5t124.5 18h9l17 58h104l-20 -69q55 -13 99 -35.5t79 -52.5l-107 -130q-24 20 -54 36.5t-65 27.5l-35 -115q43 -14 77.5 -31t59 -39t37.5 -51.5t13 -68.5q0 -51 -22 -93.5t-62.5 -72.5t-96.5 -47t-123 -17h-5l-28 -98h-104z" />
    <glyph glyph-name="percent" unicode="%" horiz-adv-x="923" 
d="M688 95q19 0 34 9.5t25.5 25t16.5 34.5t6 38q0 28 -15 45.5t-41 17.5q-19 0 -34 -9.5t-25.5 -24.5t-16.5 -34.5t-6 -38.5q0 -28 15 -45.5t41 -17.5zM252 435q18 0 33 9.5t25.5 24.5t16.5 34t6 39q0 28 -15 45.5t-41 17.5q-18 0 -33 -9.5t-25.5 -25t-16.5 -34.5t-6 -38
q0 -28 15 -45.5t41 -17.5zM683 -10q-40 0 -71 12.5t-52.5 34t-32.5 51.5t-11 65q0 40 14.5 79t41 70t64 49.5t83.5 18.5q40 0 71 -12.5t52.5 -34t32.5 -51.5t11 -65q0 -41 -14.5 -79.5t-41 -69.5t-64 -49.5t-83.5 -18.5zM757 700h141l-690 -700h-140zM247 330
q-40 0 -71.5 12t-53 34t-32.5 52t-11 65q0 40 14.5 79t41 70t64 49.5t83.5 18.5q40 0 71 -12.5t52.5 -34t32.5 -51.5t11 -65q0 -41 -14.5 -79.5t-41 -69.5t-64 -49.5t-82.5 -18.5z" />
    <glyph glyph-name="ampersand" unicode="&#x26;" horiz-adv-x="700" 
d="M278 133q47 0 103 33l-95 135q-90 -38 -90 -104q0 -28 21.5 -46t60.5 -18zM363 442q51 19 72.5 38.5t21.5 48.5q0 22 -14 37t-38 15q-29 0 -47 -20t-18 -48q0 -16 5 -33.5t18 -37.5zM468 55q-50 -32 -103.5 -49t-110.5 -17q-56 0 -100.5 13.5t-76 38.5t-48 60.5
t-16.5 80.5q0 81 54.5 136.5t146.5 85.5q-15 29 -23.5 58t-8.5 58q0 40 15.5 75t44.5 61t70 41.5t92 15.5q46 0 84.5 -13.5t66 -37t42.5 -56t15 -70.5q0 -130 -173 -192l61 -83q36 39 72 92l113 -79q-23 -35 -47.5 -65.5t-50.5 -58.5l57 -77l-127 -87z" />
    <glyph glyph-name="quotesingle" unicode="'" horiz-adv-x="282" 
d="M162 700h207l-1 -5l-198 -354h-103z" />
    <glyph glyph-name="parenleft" unicode="(" horiz-adv-x="455" 
d="M242 -143q-94 72 -145.5 160t-51.5 200q0 89 30.5 166.5t85 140.5t130.5 111t166 78l56 -129q-72 -32 -125.5 -73.5t-89 -89t-52.5 -98t-17 -101.5q0 -71 31 -131.5t90 -123.5z" />
    <glyph glyph-name="parenright" unicode=")" horiz-adv-x="455" 
d="M-50 -11q73 32 126.5 73.5t88.5 88.5t52 98t17 102q0 71 -31 131.5t-90 123.5l109 110q94 -72 145 -160.5t51 -199.5q0 -89 -30.5 -166.5t-85 -140.5t-130 -111t-165.5 -78z" />
    <glyph glyph-name="asterisk" unicode="*" horiz-adv-x="436" 
d="M183 356l58 121l-122 -58l-28 103l135 10l-112 77l77 76l76 -112l10 134l102 -27l-58 -122l122 59l28 -104l-135 -10l112 -77l-77 -75l-76 112l-10 -134z" />
    <glyph glyph-name="plus" unicode="+" horiz-adv-x="650" 
d="M237 268h-168l45 168h168l46 172h175l-46 -172h168l-45 -168h-168l-46 -172h-175z" />
    <glyph glyph-name="comma" unicode="," horiz-adv-x="302" 
d="M-74 -92q60 6 91 29.5t40 64.5h-77l53 195h197l-45 -168q-13 -48 -32.5 -83.5t-49.5 -59.5t-71.5 -36.5t-97.5 -14.5z" />
    <glyph glyph-name="hyphen" unicode="-" horiz-adv-x="417" 
d="M78 396h328l-44 -167h-329z" />
    <glyph glyph-name="hyphen" unicode="&#xad;" horiz-adv-x="417" 
d="M78 396h328l-44 -167h-329z" />
    <glyph glyph-name="period" unicode="." horiz-adv-x="302" 
d="M32 195h198l-53 -195h-197z" />
    <glyph glyph-name="slash" unicode="/" horiz-adv-x="535" 
d="M537 798h166l-682 -926h-166z" />
    <glyph glyph-name="zero" unicode="0" horiz-adv-x="726" 
d="M347 157q40 0 72.5 25t55 63.5t34.5 84.5t12 89q0 63 -28 93t-73 30q-40 0 -72 -25t-54.5 -63.5t-34.5 -84.5t-12 -89q0 -62 27.5 -92.5t72.5 -30.5zM330 -14q-65 0 -117 21.5t-88 59.5t-55.5 90t-19.5 113q0 83 27.5 163t78 142.5t122 100.5t159.5 38q66 0 118 -21.5
t88 -60t55.5 -90.5t19.5 -112q0 -84 -27.5 -163.5t-78.5 -142t-122.5 -100.5t-159.5 -38z" />
    <glyph glyph-name="one" unicode="1" horiz-adv-x="430" 
d="M222 517l-117 -28l-4 157l222 59h141l-189 -705h-191z" />
    <glyph glyph-name="two" unicode="2" horiz-adv-x="627" 
d="M8 150l356 232q46 31 63.5 55t17.5 49q0 26 -17.5 41.5t-50.5 15.5q-38 0 -78 -23.5t-81 -63.5l-113 119q55 60 126 98t164 38q57 0 102.5 -15t77.5 -41.5t49 -63t17 -80.5q0 -32 -9 -62t-30 -59.5t-56.5 -59.5t-88.5 -63l-171 -109h279l-43 -158h-555z" />
    <glyph glyph-name="three" unicode="3" horiz-adv-x="611" 
d="M256 -14q-97 0 -166.5 35t-113.5 100l132 109q29 -38 64 -58t84 -20q26 0 47.5 7t37 18.5t24 26.5t8.5 31q0 64 -109 64h-67l-4 100l196 144h-262l42 157h506l-38 -139l-214 -149q66 -18 104 -60.5t38 -109.5q0 -57 -22.5 -104.5t-63.5 -81t-98 -52t-125 -18.5z" />
    <glyph glyph-name="four" unicode="4" horiz-adv-x="679" 
d="M388 280l53 199l-218 -199h165zM349 136h-321l-21 142l476 427h205l-113 -424h89l-40 -145h-88l-37 -136h-186z" />
    <glyph glyph-name="five" unicode="5" horiz-adv-x="612" 
d="M261 -13q-44 0 -86 10t-79 27t-67.5 39.5t-50.5 47.5l122 114q37 -36 77 -55t90 -19q56 0 89 28t33 67q0 32 -25 53.5t-79 21.5q-26 0 -52 -8t-47 -21l-99 69l111 339h462l-43 -160h-306l-32 -97q41 14 89 14t88 -13.5t68.5 -39t44 -61t15.5 -80.5q0 -58 -23 -108
t-65 -87.5t-102 -59t-133 -21.5z" />
    <glyph glyph-name="six" unicode="6" horiz-adv-x="654" 
d="M317 134q25 0 45.5 9.5t35 25t22.5 35.5t8 41q0 35 -23 56.5t-61 21.5q-26 0 -47 -9t-36 -24t-23 -35t-8 -42q0 -34 22 -54q11 -11 27.5 -18t37.5 -7zM317 -13q-61 0 -111.5 18t-84.5 52q-72 72 -72 193q0 47 8.5 95t26 93.5t43 87t59.5 75.5q51 51 119 81.5t156 30.5
q69 0 126.5 -20t99.5 -56l-97 -137q-27 24 -63 39t-74 15q-81 0 -136 -55q-39 -39 -59 -96q26 23 68 39t92 16q41 0 77.5 -12.5t64 -37t43.5 -60t16 -80.5q0 -58 -23.5 -109t-64.5 -89.5t-96 -60.5t-118 -22z" />
    <glyph glyph-name="seven" unicode="7" horiz-adv-x="614" 
d="M418 537h-316l44 163h540l-40 -146l-428 -554h-222z" />
    <glyph glyph-name="eight" unicode="8" horiz-adv-x="664" 
d="M316 133q45 0 76.5 22.5t31.5 60.5q1 35 -29 55t-71 20q-45 0 -76.5 -23t-31.5 -59q0 -18 7.5 -32t21.5 -23.5t32 -15t39 -5.5zM380 417q40 0 68.5 22t28.5 57q1 32 -25 51.5t-65 19.5q-40 0 -68.5 -22t-28.5 -57q-1 -33 25.5 -52t64.5 -19zM305 -10q-57 0 -108.5 13.5
t-89.5 39t-60.5 62t-22.5 81.5q0 75 46.5 122t124.5 68q-37 22 -56.5 56t-19.5 76q0 37 18 73t53 64.5t87 46.5t121 18q58 0 106 -14.5t82 -40.5t52.5 -61t18.5 -75q0 -65 -40 -109t-110 -64q47 -20 75 -55t28 -89q0 -44 -21.5 -83t-61.5 -67.5t-96.5 -45t-125.5 -16.5z" />
    <glyph glyph-name="nine" unicode="9" horiz-adv-x="654" 
d="M354 374q25 0 45.5 9t35.5 25t23 36t8 43q0 32 -21 55q-24 24 -65 24q-25 0 -45.5 -9t-35.5 -25t-23 -36.5t-8 -42.5q0 -36 24 -57.5t62 -21.5zM238 -13q-69 0 -128 21t-105 60l97 136q31 -26 66.5 -42t74.5 -16q80 0 137 57q38 37 57 91q-26 -23 -67.5 -38.5
t-91.5 -15.5q-41 0 -77.5 12.5t-64 36.5t-43.5 59.5t-16 81.5q0 60 23.5 112t64.5 90t96 60t118 22q59 0 110.5 -18t85.5 -52q35 -35 54 -84t19 -116q0 -93 -35 -184.5t-104 -160.5q-51 -51 -118.5 -81.5t-152.5 -30.5z" />
    <glyph glyph-name="colon" unicode=":" horiz-adv-x="307" 
d="M35 195h197l-52 -195h-198zM127 541h198l-53 -195h-197z" />
    <glyph glyph-name="semicolon" unicode=";" horiz-adv-x="307" 
d="M-72 -94q60 6 91 29.5t40 64.5h-77l53 195h197l-45 -168q-13 -48 -32.5 -83.5t-49.5 -59.5t-71.5 -36.5t-97.5 -14.5zM127 541h198l-53 -195h-197z" />
    <glyph glyph-name="semicolon" unicode="&#x37e;" horiz-adv-x="307" 
d="M-72 -94q60 6 91 29.5t40 64.5h-77l53 195h197l-45 -168q-13 -48 -32.5 -83.5t-49.5 -59.5t-71.5 -36.5t-97.5 -14.5zM127 541h198l-53 -195h-197z" />
    <glyph glyph-name="less" unicode="&#x3c;" horiz-adv-x="644" 
d="M68 263l48 177l550 198l-50 -185l-356 -110l298 -109l-45 -169z" />
    <glyph glyph-name="equal" unicode="=" horiz-adv-x="639" 
d="M83 301h491l-44 -167h-492zM155 570h492l-45 -167h-492z" />
    <glyph glyph-name="greater" unicode="&#x3e;" horiz-adv-x="644" 
d="M70 250l356 110l-298 109l45 169l445 -198l-48 -177l-550 -198z" />
    <glyph glyph-name="question" unicode="?" horiz-adv-x="540" 
d="M113 170h197l-46 -170h-197zM186 396l9 8q90 8 136 29.5t46 57.5q0 23 -16 36.5t-51 13.5q-65 0 -135 -54l-78 135q50 43 113.5 65.5t133.5 22.5q52 0 94 -14t71.5 -39t45 -58t15.5 -71q0 -85 -60.5 -145t-190.5 -81l-30 -74h-121z" />
    <glyph glyph-name="at" unicode="@" horiz-adv-x="965" 
d="M460 191q21 0 41 10t35 27t24 40.5t9 49.5q0 31 -19.5 50t-50.5 19q-22 0 -41.5 -10t-34.5 -27t-23.5 -40t-8.5 -49q0 -32 18.5 -51t50.5 -19zM462 -154q-92 0 -168.5 28t-131.5 79t-85 122.5t-30 158.5q0 97 37.5 184.5t103.5 153.5t155.5 104.5t193.5 38.5
q95 0 169.5 -27t126.5 -74t79 -109.5t27 -132.5q0 -83 -21 -142.5t-55.5 -97.5t-78 -56.5t-88.5 -18.5q-55 0 -94 23t-58 59q-29 -32 -67 -56t-92 -24q-32 0 -60.5 11.5t-49.5 34t-33 54t-12 72.5q0 61 20 114t54 91.5t78 60.5t92 22q50 0 80.5 -21t48.5 -51l21 67l147 -40
l-80 -254q-15 -48 0.5 -74t57.5 -26q24 0 50.5 16.5t48 48.5t36 80t14.5 110q0 61 -24.5 116t-71 95.5t-113.5 64.5t-152 24q-96 0 -178 -35.5t-142.5 -96t-94.5 -140.5t-34 -169q0 -78 27 -142.5t76.5 -110t118.5 -71t153 -25.5q56 0 104 11t101 34l16 -37
q-55 -25 -108 -36t-114 -11z" />
    <glyph glyph-name="A" unicode="A" horiz-adv-x="775" 
d="M475 276l-25 201l-131 -201h156zM413 705h190l109 -705h-204l-17 125h-270l-84 -125h-211z" />
    <glyph glyph-name="B" unicode="B" horiz-adv-x="714" 
d="M366 156q51 0 79.5 20.5t28.5 53.5q0 55 -86 55h-134l-35 -129h147zM422 421q52 0 79 19t27 52q0 24 -19.5 38t-64.5 14h-121l-32 -123h131zM176 700h291q72 0 120.5 -13.5t78 -37t42 -54t12.5 -63.5q0 -67 -41.5 -114t-115.5 -65q47 -17 76.5 -51.5t29.5 -88.5
q0 -45 -19 -84t-58.5 -67.5t-99.5 -45t-141 -16.5h-363z" />
    <glyph glyph-name="C" unicode="C" horiz-adv-x="727" 
d="M382 -14q-73 0 -133.5 21.5t-104.5 61.5t-68.5 96.5t-24.5 126.5q0 78 30.5 153.5t87 135t137.5 96.5t182 37q108 0 180 -48t104 -129l-168 -90q-21 43 -55 66.5t-86 23.5q-44 0 -82 -19t-66 -51t-44.5 -73.5t-16.5 -87.5q0 -67 39.5 -105.5t100.5 -38.5q46 0 81 18.5
t69 52.5l131 -116q-51 -58 -122 -94.5t-171 -36.5z" />
    <glyph glyph-name="D" unicode="D" horiz-adv-x="761" 
d="M293 172q61 0 113 18t87 53q28 28 44 66t16 80q0 32 -9 55.5t-26 40.5q-20 20 -53 31.5t-84 11.5h-56l-96 -356h64zM176 700h226q102 0 168 -25t106 -65q76 -76 76 -205q0 -79 -29 -149t-86 -127q-63 -63 -154 -96t-213 -33h-282z" />
    <glyph glyph-name="E" unicode="E" horiz-adv-x="669" 
d="M176 700h561l-45 -165h-368l-29 -106h334l-41 -153h-334l-30 -111h374l-44 -165h-566z" />
    <glyph glyph-name="F" unicode="F" horiz-adv-x="652" 
d="M176 700h560l-46 -170h-365l-32 -119h330l-43 -161h-330l-67 -250h-195z" />
    <glyph glyph-name="G" unicode="G" horiz-adv-x="762" 
d="M387 -14q-63 0 -123.5 18t-108 56t-76.5 96t-29 139q0 84 32.5 159.5t92 133.5t142 92t182.5 34q52 0 97.5 -10t82 -26.5t64.5 -38t46 -44.5l-130 -126q-31 31 -73.5 51.5t-99.5 20.5q-53 0 -96.5 -19t-75 -51.5t-49 -76t-17.5 -91.5q0 -37 12.5 -65t34 -46.5t50 -28
t60.5 -9.5q29 0 52 5.5t41 13.5l28 94h-135l37 142h321l-100 -353q-52 -30 -118 -50t-144 -20z" />
    <glyph glyph-name="H" unicode="H" horiz-adv-x="757" 
d="M176 700h195l-71 -262h247l70 262h195l-188 -700h-195l72 266h-247l-71 -266h-195z" />
    <glyph glyph-name="I" unicode="I" horiz-adv-x="325" 
d="M181 700h194l-188 -700h-194z" />
    <glyph glyph-name="J" unicode="J" horiz-adv-x="568" 
d="M197 -12q-74 0 -137 31.5t-101 91.5l132 115q27 -37 53.5 -52.5t58.5 -15.5q43 0 75 32q7 7 13.5 16.5t12.5 23t12.5 33t14.5 46.5l105 391h193l-114 -428q-20 -75 -44 -123.5t-60 -84.5q-38 -37 -91 -56.5t-123 -19.5z" />
    <glyph glyph-name="K" unicode="K" horiz-adv-x="722" 
d="M176 700h195l-76 -280l289 280h247l-330 -307l156 -393h-210l-101 270l-121 -111l-42 -159h-195z" />
    <glyph glyph-name="L" unicode="L" horiz-adv-x="617" 
d="M176 700h195l-142 -530h334l-46 -170h-529z" />
    <glyph glyph-name="M" unicode="M" horiz-adv-x="866" 
d="M176 700h196l93 -271l238 271h218l-188 -700h-195l107 402l-251 -274h-4l-103 272l-107 -400h-192z" />
    <glyph glyph-name="N" unicode="N" horiz-adv-x="781" 
d="M176 700h181l181 -389l105 389h193l-188 -700h-170l-189 403l-108 -403h-193z" />
    <glyph glyph-name="O" unicode="O" horiz-adv-x="813" 
d="M403 161q46 0 83.5 20t63.5 52.5t40.5 72t14.5 78.5q0 33 -10 61.5t-29.5 49.5t-48 32.5t-65.5 11.5q-46 0 -83 -20t-63.5 -52.5t-41 -72t-14.5 -78.5q0 -33 10 -61.5t29.5 -49.5t48 -32.5t65.5 -11.5zM386 -13q-75 0 -136.5 24t-105.5 66t-68 99.5t-24 124.5
q0 80 31 154.5t86.5 131.5t132 91.5t167.5 34.5q75 0 136.5 -24t105.5 -66t68 -99.5t24 -124.5q0 -80 -31 -154.5t-86.5 -131.5t-132 -91.5t-167.5 -34.5z" />
    <glyph glyph-name="P" unicode="P" horiz-adv-x="672" 
d="M350 352q72 0 111.5 29.5t39.5 79.5q0 29 -20 49q-27 27 -83 27h-72l-49 -185h73zM176 700h229q86 0 144 -18t96 -56q55 -55 55 -143q0 -65 -25.5 -117.5t-71 -89t-109.5 -56t-142 -19.5h-115l-54 -201h-195z" />
    <glyph glyph-name="Q" unicode="Q" horiz-adv-x="813" 
d="M402 157q14 0 26.5 2.5t23.5 6.5l-77 104l139 92l60 -94q15 26 23 55.5t8 58.5q0 34 -10 63t-29.5 50t-48 32.5t-65.5 11.5q-46 0 -83.5 -20.5t-64 -52.5t-41 -72t-14.5 -80q0 -34 10 -63t29.5 -50t48 -32.5t65.5 -11.5zM558 24q-80 -37 -172 -37q-75 0 -136.5 24
t-105.5 66t-68 99.5t-24 124.5q0 80 31 154.5t86.5 131.5t132 91.5t167.5 34.5q75 0 136.5 -24t105.5 -66t68 -99.5t24 -124.5q0 -78 -30.5 -151t-84.5 -130l53 -72l-138 -91z" />
    <glyph glyph-name="R" unicode="R" horiz-adv-x="720" 
d="M391 364q66 0 105 26t39 71q0 27 -18 47q-24 24 -86 24h-105l-46 -168h111zM176 700h264q88 0 147 -19t94 -54q28 -28 41 -64.5t13 -78.5q0 -88 -51 -153.5t-159 -94.5l108 -236h-214l-93 212h-86l-57 -212h-195z" />
    <glyph glyph-name="S" unicode="S" horiz-adv-x="645" 
d="M302 -12q-103 0 -185.5 33.5t-139.5 94.5l125 129q103 -95 216 -95q35 0 57 14t22 38q0 10 -4.5 18.5t-17.5 17t-35.5 19t-59.5 24.5q-42 16 -75.5 33.5t-57 40t-36.5 51.5t-13 68q0 52 22.5 96t62 75.5t94 49t118.5 17.5q93 0 164.5 -28t122.5 -76l-120 -134
q-40 35 -85.5 56t-99.5 21q-35 0 -55.5 -14.5t-20.5 -35.5q0 -11 5 -18.5t17.5 -15.5t35.5 -18t59 -24q40 -15 73.5 -33t57.5 -40.5t37.5 -52.5t13.5 -69q0 -54 -22 -98.5t-61.5 -76.5t-94.5 -49.5t-120 -17.5z" />
    <glyph glyph-name="T" unicode="T" horiz-adv-x="645" 
d="M294 530h-210l46 170h613l-45 -170h-210l-142 -530h-195z" />
    <glyph glyph-name="U" unicode="U" horiz-adv-x="760" 
d="M342 -13q-136 0 -209.5 64.5t-73.5 180.5q0 26 4 54.5t12 57.5l96 356h196l-99 -370q-5 -17 -7.5 -33t-2.5 -33q0 -48 28 -75t81 -27q57 0 94 37q20 19 34 46.5t25 69.5l104 385h196l-111 -414q-37 -137 -109 -209q-47 -47 -112 -68.5t-146 -21.5z" />
    <glyph glyph-name="V" unicode="V" horiz-adv-x="739" 
d="M109 700h212l39 -440l275 440h219l-471 -705h-181z" />
    <glyph glyph-name="W" unicode="W" horiz-adv-x="1102" 
d="M117 700h201l13 -405l242 407h168l27 -407l230 405h211l-423 -705h-174l-32 398l-245 -398h-173z" />
    <glyph glyph-name="X" unicode="X" horiz-adv-x="713" 
d="M266 366l-145 334h213l77 -197l173 197h234l-324 -348l154 -352h-214l-84 216l-190 -216h-235z" />
    <glyph glyph-name="Y" unicode="Y" horiz-adv-x="677" 
d="M232 271l-141 429h209l69 -262l211 262h232l-391 -450l-67 -250h-195z" />
    <glyph glyph-name="Z" unicode="Z" horiz-adv-x="681" 
d="M1 141l446 395h-328l45 164h595l-38 -141l-446 -395h341l-44 -164h-608z" />
    <glyph glyph-name="bracketleft" unicode="[" horiz-adv-x="468" 
d="M197 700h346l-35 -129h-176l-154 -572h176l-34 -129h-346z" />
    <glyph glyph-name="backslash" unicode="\" horiz-adv-x="535" 
d="M109 798h153l207 -926h-153z" />
    <glyph glyph-name="bracketright" unicode="]" horiz-adv-x="468" 
d="M-32 -1h176l153 572h-176l35 129h346l-223 -830h-346z" />
    <glyph glyph-name="asciicircum" unicode="^" 
d="M288 699h128l89 -206h-123l-50 97l-102 -97h-141z" />
    <glyph glyph-name="underscore" unicode="_" horiz-adv-x="600" 
d="M-86 -44h604l-31 -116h-604z" />
    <glyph glyph-name="grave" unicode="`" 
d="M222 715l179 57l55 -185h-123z" />
    <glyph glyph-name="a" unicode="a" horiz-adv-x="597" 
d="M240 106q37 0 68.5 28t42.5 70l5 18q-16 5 -33.5 8.5t-37.5 3.5q-45 0 -72 -20.5t-27 -57.5q0 -23 15 -36.5t39 -13.5zM152 -11q-67 0 -109 39.5t-42 107.5q0 45 17 80t48.5 60t75 38t97.5 13q37 0 71 -5.5t66 -15.5l2 7q2 7 3.5 15t1.5 18q0 26 -21.5 42t-71.5 16
q-38 0 -77.5 -8t-68.5 -19l-27 138q43 15 98.5 24t114.5 9q122 0 181.5 -45.5t59.5 -126.5q0 -36 -11 -78l-80 -298h-187l15 58q-35 -32 -71.5 -50.5t-84.5 -18.5z" />
    <glyph glyph-name="b" unicode="b" horiz-adv-x="672" 
d="M320 146q27 0 51 12t42 33t28.5 49.5t10.5 60.5q0 44 -25 69.5t-67 25.5q-27 0 -51.5 -12.5t-43 -33.5t-29 -49t-10.5 -59q0 -44 26 -70t68 -26zM353 -12q-61 0 -100 24t-64 62l-20 -74h-190l195 730h190l-66 -246q32 32 70.5 50.5t83.5 18.5q40 0 75 -15t61 -43.5
t41 -70t15 -93.5q0 -73 -23.5 -135.5t-63.5 -108.5t-93 -72.5t-111 -26.5z" />
    <glyph glyph-name="c" unicode="c" horiz-adv-x="563" 
d="M281 -13q-55 0 -101.5 16.5t-80 47t-52.5 74.5t-19 99q0 68 25.5 128t69.5 104.5t103 70t127 25.5q47 0 85 -11.5t66.5 -31.5t48 -47t30.5 -58l-149 -77q-14 32 -35 50t-58 18q-27 0 -50.5 -13.5t-41.5 -36t-28 -51.5t-10 -60q0 -42 24 -66t59 -24q30 0 53.5 12.5
t48.5 37.5l116 -101q-41 -48 -95.5 -77t-135.5 -29z" />
    <glyph glyph-name="d" unicode="d" horiz-adv-x="672" 
d="M312 145q27 0 51.5 12.5t43 33.5t29 49t10.5 59q0 44 -26 70t-68 26q-27 0 -51 -12t-42 -33t-28.5 -49.5t-10.5 -60.5q0 -44 25 -69.5t67 -25.5zM220 -12q-40 0 -75 15t-61 43.5t-41 69.5t-15 94q0 73 23.5 135.5t63.5 108.5t93 72.5t111 26.5q61 0 100 -24t64 -62
l70 263h190l-195 -730h-190l16 57q-32 -31 -70.5 -50t-83.5 -19z" />
    <glyph glyph-name="e" unicode="e" horiz-adv-x="601" 
d="M409 315q5 15 5 29q0 28 -18 48.5t-56 20.5t-72.5 -24.5t-51.5 -73.5h193zM203 218q3 -41 27.5 -65t73.5 -24q29 0 56.5 10t58.5 33l88 -104q-42 -36 -96 -58.5t-125 -22.5q-60 0 -108 17t-81 48.5t-51 75.5t-18 99q0 60 22.5 118.5t65 104.5t102.5 74.5t135 28.5
q60 0 103.5 -18.5t71.5 -49.5t41.5 -71.5t13.5 -84.5q0 -28 -5.5 -56.5t-15.5 -54.5h-359z" />
    <glyph glyph-name="f" unicode="f" horiz-adv-x="418" 
d="M118 388h-64l41 153h63l3 11q25 99 82 142t150 43q35 0 64.5 -4.5t56.5 -13.5l-35 -133q-15 5 -32.5 8.5t-31.5 3.5q-29 0 -45 -12.5t-23 -38.5l-3 -9h122l-40 -150h-118l-105 -388h-190z" />
    <glyph glyph-name="g" unicode="g" horiz-adv-x="668" 
d="M310 185q27 0 50.5 11t41 29t27 41.5t9.5 49.5q0 38 -24 62t-66 24q-27 0 -50.5 -11t-40 -30t-26 -43t-9.5 -50q0 -38 24 -60.5t64 -22.5zM238 -162q-39 0 -78.5 5.5t-76.5 15t-70.5 23t-59.5 30.5l85 119q46 -28 96 -42t96 -14q38 0 65 10t47 30q15 15 26 36.5t19 50.5
l3 12q-36 -32 -75 -49t-89 -17q-37 0 -71.5 12t-61.5 36t-43.5 59t-16.5 80q0 63 21.5 120.5t60 101t90.5 69.5t112 26q62 0 101.5 -26t62.5 -62l20 77h190l-115 -430q-10 -36 -20 -64.5t-21.5 -52t-25 -42t-29.5 -35.5q-41 -40 -99 -59.5t-143 -19.5z" />
    <glyph glyph-name="h" unicode="h" horiz-adv-x="632" 
d="M174 730h190l-67 -251q28 29 67.5 51.5t87.5 22.5q74 0 115.5 -43.5t41.5 -118.5q0 -22 -4.5 -46.5t-11.5 -50.5l-78 -294h-190l76 283q3 11 4.5 23t1.5 21q0 27 -15.5 42t-44.5 15q-40 0 -64 -25.5t-37 -72.5l-77 -286h-190z" />
    <glyph glyph-name="i" unicode="i" horiz-adv-x="301" 
d="M128 541h190l-145 -541h-190zM176 730h198l-38 -140h-198z" />
    <glyph glyph-name="j" unicode="j" horiz-adv-x="303" 
d="M-53 -163q-24 0 -42.5 1.5t-38.5 5.5l33 126q12 -3 24 -3q29 0 46 17.5t28 60.5l133 496h190l-140 -520q-15 -54 -36 -89.5t-50 -56.5t-65.5 -29.5t-81.5 -8.5zM177 730h198l-38 -140h-198z" />
    <glyph glyph-name="k" unicode="k" horiz-adv-x="599" 
d="M175 730h190l-96 -357l181 168h229l-249 -222l106 -319h-203l-58 192l-71 -63l-35 -129h-190z" />
    <glyph glyph-name="l" unicode="l" horiz-adv-x="301" 
d="M179 730h190l-196 -730h-190z" />
    <glyph glyph-name="m" unicode="m" horiz-adv-x="968" 
d="M124 541h190l-16 -60q28 29 65.5 50.5t85.5 21.5q56 0 91 -26t50 -68q38 44 87 69t109 25q78 0 119 -43t41 -118q0 -22 -4.5 -47t-11.5 -51l-79 -294h-189l75 283q3 11 5 23t2 21q0 27 -14 42t-44 15q-38 0 -62 -25.5t-37 -72.5l-77 -286h-190l76 283q3 11 5 23t2 21
q0 27 -14.5 42t-43.5 15q-38 0 -62 -25.5t-37 -72.5l-77 -286h-190z" />
    <glyph glyph-name="n" unicode="n" horiz-adv-x="630" 
d="M124 541h190l-17 -62q28 29 67.5 51.5t87.5 22.5q74 0 115.5 -43.5t41.5 -118.5q0 -22 -4.5 -46.5t-11.5 -50.5l-78 -294h-190l76 283q3 11 4.5 23t1.5 21q0 27 -15.5 42t-44.5 15q-40 0 -64 -25.5t-37 -72.5l-77 -286h-190z" />
    <glyph glyph-name="o" unicode="o" horiz-adv-x="644" 
d="M306 145q28 0 51.5 13.5t40 35t25.5 48t9 53.5q0 46 -26 73t-68 27q-28 0 -51.5 -13.5t-40 -35t-25.5 -48t-9 -52.5q0 -47 26 -74t68 -27zM295 -13q-62 0 -111 19.5t-83.5 53t-52.5 79.5t-18 100q0 61 24 118t67 100.5t101 69.5t126 26q62 0 111.5 -19.5t84 -53
t52.5 -79.5t18 -99q0 -62 -24.5 -118.5t-67 -100.5t-101 -70t-126.5 -26z" />
    <glyph glyph-name="p" unicode="p" horiz-adv-x="672" 
d="M320 146q27 0 51 12t42 33t28.5 49.5t10.5 60.5q0 44 -25 69.5t-67 25.5q-27 0 -51.5 -12.5t-43 -33.5t-29 -49t-10.5 -59q0 -44 26 -70t68 -26zM124 541h190l-16 -57q32 32 70.5 50.5t83.5 18.5q40 0 75 -15t61 -43.5t41 -70t15 -93.5q0 -73 -23.5 -135.5t-63.5 -108.5
t-93 -72.5t-111 -26.5q-61 0 -100 24t-64 62l-63 -234h-190z" />
    <glyph glyph-name="q" unicode="q" horiz-adv-x="672" 
d="M312 145q27 0 51.5 12.5t43 33.5t29 49t10.5 59q0 44 -26 70t-68 26q-27 0 -51 -12t-42 -33t-28.5 -49.5t-10.5 -60.5q0 -44 25 -69.5t67 -25.5zM374 57q-32 -31 -70.5 -50t-83.5 -19q-40 0 -75 15t-61 43.5t-41 69.5t-15 94q0 73 23.5 135.5t63.5 108.5t93 72.5
t111 26.5q61 0 100 -24t64 -62l20 74h190l-193 -721h-190z" />
    <glyph glyph-name="r" unicode="r" horiz-adv-x="430" 
d="M124 541h190l-29 -109q39 58 88 90.5t115 27.5l-54 -200h-16q-78 0 -128.5 -45t-76.5 -142l-44 -163h-190z" />
    <glyph glyph-name="s" unicode="s" horiz-adv-x="511" 
d="M230 -13q-78 0 -148 25t-119 69l94 111q39 -35 89 -54t91 -19q24 0 36 9t12 24q0 14 -17 24.5t-57 26.5q-32 13 -60 27t-48.5 32.5t-32 42.5t-11.5 56q0 40 16 75.5t46 61t74 40.5t100 15q74 0 135.5 -23t98.5 -53l-91 -114q-35 26 -75.5 42t-77.5 16q-47 0 -47 -31
q0 -14 16.5 -24t58.5 -27q29 -12 56.5 -25.5t48.5 -31.5t33.5 -42.5t12.5 -58.5q0 -39 -14.5 -74t-44 -62t-73.5 -42.5t-102 -15.5z" />
    <glyph glyph-name="t" unicode="t" horiz-adv-x="430" 
d="M214 -11q-83 0 -123.5 34t-40.5 94q0 17 2.5 34t7.5 37l54 200h-64l41 153h64l37 137h190l-37 -137h126l-41 -153h-126l-46 -170q-5 -22 -5 -33q0 -34 43 -34q30 0 72 15l-42 -158q-26 -9 -54.5 -14t-57.5 -5z" />
    <glyph glyph-name="u" unicode="u" horiz-adv-x="632" 
d="M183 -12q-74 0 -115.5 43.5t-41.5 118.5q0 22 4 46.5t11 50.5l79 294h190l-76 -283q-3 -11 -5 -23t-2 -21q0 -27 15.5 -42t45.5 -15q40 0 64 25.5t36 72.5l77 286h190l-144 -541h-190l16 62q-28 -29 -67 -51.5t-87 -22.5z" />
    <glyph glyph-name="v" unicode="v" horiz-adv-x="621" 
d="M81 541h195l20 -315l187 315h202l-361 -545h-173z" />
    <glyph glyph-name="w" unicode="w" horiz-adv-x="859" 
d="M84 541h183l-2 -272l157 274h156l11 -276l146 274h185l-313 -545h-162l-13 281l-165 -281h-164z" />
    <glyph glyph-name="x" unicode="x" horiz-adv-x="589" 
d="M197 281l-112 260h197l47 -131l109 131h214l-252 -274l114 -267h-197l-49 137l-116 -137h-214z" />
    <glyph glyph-name="y" unicode="y" horiz-adv-x="622" 
d="M94 -163q-48 0 -82 10.5t-62 28.5l85 139q37 -27 75 -27q14 0 24.5 4t22.5 16l-70 533h193l22 -325l182 325h200l-335 -538q-29 -46 -57.5 -77.5t-59.5 -51t-64.5 -28.5t-73.5 -9z" />
    <glyph glyph-name="z" unicode="z" horiz-adv-x="558" 
d="M-6 125l318 265h-238l40 151h486l-33 -125l-319 -265h249l-40 -151h-497z" />
    <glyph glyph-name="braceleft" unicode="{" horiz-adv-x="497" 
d="M322 -141q-62 7 -103 20t-65.5 32t-34.5 42.5t-10 51.5q0 18 4 38.5t12 43.5q7 22 11.5 42t4.5 34t-3.5 25.5t-13 19.5t-26.5 12t-45 4h-26l33 126h27q40 0 66 7.5t42.5 25.5t25.5 47.5t15 72.5q7 51 24 90.5t52 66.5t91.5 41t142.5 14l12 -112q-49 -4 -79.5 -15.5
t-48 -30.5t-25 -45.5t-11.5 -59.5q-5 -41 -15 -72t-28.5 -52.5t-48.5 -34.5t-75 -18q46 -9 66 -34.5t20 -60.5q0 -18 -4.5 -36t-9.5 -35q-6 -17 -10.5 -34.5t-4.5 -33.5q0 -30 18 -48t73 -31z" />
    <glyph glyph-name="bar" unicode="|" horiz-adv-x="356" 
d="M122 798h145v-926h-145v926z" />
    <glyph glyph-name="braceright" unicode="}" horiz-adv-x="497" 
d="M-52 -29q49 4 79 15.5t47.5 30.5t25 45.5t12.5 59.5q5 41 15 72t28.5 52.5t48.5 34.5t75 18q-46 9 -66 34.5t-20 60.5q0 18 4.5 36t9.5 35q6 17 10.5 34.5t4.5 33.5q0 15 -4 26.5t-14 21t-28 17t-45 14.5l53 103q62 -7 103 -20t65.5 -32t34.5 -42.5t10 -51.5
q0 -18 -4 -38.5t-12 -43.5q-7 -22 -11.5 -42t-4.5 -34t3.5 -25.5t13 -19.5t26.5 -12t45 -4h26l-33 -126h-27q-40 0 -66 -7.5t-42.5 -25.5t-25.5 -47.5t-15 -72.5q-7 -51 -24 -90.5t-52 -66.5t-91.5 -41t-142.5 -14z" />
    <glyph glyph-name="asciitilde" unicode="~" horiz-adv-x="505" 
d="M41 257q29 70 70.5 107t89.5 37q26 0 46.5 -9t37.5 -22q17 -12 29 -18t23 -6q21 0 36.5 15.5t29.5 41.5l89 -41q-29 -70 -71 -107t-90 -37q-26 0 -46.5 9t-37.5 22q-17 12 -29 18t-23 6q-21 0 -36.5 -15.5t-29.5 -41.5z" />
    <glyph glyph-name="nonbreakingspace" unicode="&#xa0;" horiz-adv-x="277" 
 />
    <glyph glyph-name="exclamdown" unicode="&#xa1;" horiz-adv-x="322" 
d="M4 85l162 387h99l-45 -387l-23 -85h-217zM178 700h197l-45 -170h-198z" />
    <glyph glyph-name="cent" unicode="&#xa2;" horiz-adv-x="585" 
d="M350 494q-30 -3 -54 -18.5t-41 -39t-26 -52t-9 -57.5q0 -27 9 -47.5t24 -32.5zM190 101q-64 29 -100 85t-36 133q0 67 24.5 125.5t68 102t103.5 68.5t130 25h21l26 66h110l-35 -89q45 -20 74 -53t43 -74l-137 -71q-14 37 -42 56l-98 -254q29 2 54.5 16t48.5 37l108 -96
q-41 -48 -97 -75.5t-131 -27.5h-17.5t-17.5 2l-32 -83h-110z" />
    <glyph glyph-name="sterling" unicode="&#xa3;" horiz-adv-x="631" 
d="M9 116l82 28l33 121h-75l36 135h75l15 57q15 58 37.5 102t54.5 76q38 38 88.5 57.5t117.5 19.5q75 0 130.5 -29.5t84.5 -74.5l-131 -118q-18 24 -39 37.5t-53 13.5q-22 0 -37 -7.5t-27 -19.5q-12 -11 -21 -29t-15 -40l-13 -45h209l-36 -135h-208l-30 -111h285l-41 -154
h-553z" />
    <glyph glyph-name="currency" unicode="&#xa4;" horiz-adv-x="677" 
d="M385 -14q-57 0 -105 16.5t-84 47.5t-58.5 75t-28.5 98h-90l28 104h67q2 13 4.5 25.5t6.5 24.5h-65l28 104h65q21 50 53 93t74.5 74t94.5 48.5t114 17.5q97 0 156.5 -40.5t89.5 -106.5l-142 -95q-20 38 -47 56.5t-72 18.5q-41 0 -71 -18t-52 -50h169l-27 -101h-180
q-8 -26 -12 -52h178l-27 -101h-154q8 -37 34 -54.5t61 -17.5q37 0 66 14t60 45l111 -119q-47 -50 -107 -78.5t-138 -28.5z" />
    <glyph glyph-name="yen" unicode="&#xa5;" horiz-adv-x="718" 
d="M215 93h-184l32 120h184l13 50h-184l32 120h140l-122 317h205l73 -230l188 230h229l-291 -317h138l-32 -120h-184l-13 -50h183l-32 -120h-184l-25 -93h-191z" />
    <glyph glyph-name="section" unicode="&#xa7;" horiz-adv-x="625" 
d="M404 292q21 0 36 9.5t15 26.5t-20.5 29t-66.5 27q-38 13 -61.5 19.5t-41.5 6.5q-22 0 -37 -10t-15 -27t20.5 -28.5t66.5 -27.5q38 -13 61.5 -19t42.5 -6zM280 -12q-81 0 -148.5 25.5t-108.5 68.5l99 105q31 -29 75.5 -49t86.5 -20q53 0 53 30q0 14 -21 24t-77 27
q-37 11 -69.5 23.5t-56.5 29t-37.5 38t-13.5 49.5q0 45 29 79.5t97 50.5q-15 16 -24 36t-9 46q0 33 16 63t46 52t73.5 35t97.5 13q81 0 149 -26t108 -68l-98 -105q-31 29 -76 48.5t-87 19.5q-52 0 -52 -29q0 -14 20.5 -24.5t76.5 -26.5q37 -11 69.5 -24t56.5 -29.5t37.5 -38
t13.5 -49.5q0 -45 -28.5 -79t-96.5 -51q14 -16 23 -35.5t9 -45.5q0 -34 -16 -63.5t-46 -51.5t-73 -35t-98 -13z" />
    <glyph glyph-name="dieresis" unicode="&#xa8;" 
d="M181 730h166l-39 -143h-166zM400 730h166l-39 -143h-166z" />
    <glyph glyph-name="copyright" unicode="&#xa9;" horiz-adv-x="830" 
d="M443 156q-44 0 -81 15t-64 41.5t-42 62.5t-15 78v2q0 41 15 77t42 63t64.5 43t82.5 16q60 0 98 -22t64 -57l-81 -64q-16 20 -36 32.5t-47 12.5q-40 0 -65.5 -29t-25.5 -71v-2q0 -42 25.5 -71t65.5 -29q30 0 49.5 13t36.5 33l81 -58q-27 -38 -66 -62t-101 -24zM437 26
q69 0 127.5 25.5t101.5 70t67.5 103.5t24.5 125v2q0 66 -24.5 125t-67 102.5t-101 69t-126.5 25.5q-69 0 -127.5 -25.5t-101.5 -70t-67.5 -103.5t-24.5 -125v-2q0 -66 24 -125t67 -102.5t101.5 -69t126.5 -25.5zM437 -14q-76 0 -142 29t-114.5 78.5t-76.5 115t-28 139.5v2
q0 74 28 140t77 116t115.5 79t142.5 29t142 -29t114.5 -78.5t76.5 -115t28 -139.5v-2q0 -74 -28 -140t-77 -116t-115.5 -79t-142.5 -29z" />
    <glyph glyph-name="ordfeminine" unicode="&#xaa;" horiz-adv-x="395" 
d="M231 462q20 0 37.5 15t22.5 38l3 11q-10 3 -19.5 5t-20.5 2q-23 0 -38 -11.5t-15 -31.5q0 -12 8 -20t22 -8zM66 347h288l-21 -77h-288zM182 398q-37 0 -60 21.5t-23 58.5q0 50 36 78t95 28q20 0 37.5 -3t37.5 -10l2 6q2 4 2.5 8.5t0.5 7.5q0 33 -51 33q-20 0 -41.5 -4
t-37.5 -10l-15 75q24 9 54.5 14t61.5 5q67 0 99.5 -25t32.5 -70q0 -21 -6 -43l-44 -164h-104l9 32q-19 -18 -39.5 -28t-46.5 -10z" />
    <glyph glyph-name="guillemotleft" unicode="&#xab;" horiz-adv-x="630" 
d="M30 252l13 49l215 212l105 -96l-166 -161l82 -165l-141 -63zM288 260l2 8l241 237l105 -96l-171 -166l77 -155l-141 -63z" />
    <glyph glyph-name="registered" unicode="&#xae;" horiz-adv-x="830" 
d="M455 368q28 0 43 12t15 33v2q0 23 -16 34.5t-42 11.5h-69v-93h69zM278 553h180q45 0 77 -11.5t52 -31.5q34 -34 34 -88v-2q0 -45 -22 -74t-58 -44l92 -134h-123l-78 117h-2h-44v-117h-108v385zM437 26q69 0 127.5 25.5t101.5 70t67.5 103.5t24.5 125v2q0 66 -24.5 125
t-67 102.5t-101 69t-126.5 25.5q-69 0 -127.5 -25.5t-101.5 -70t-67.5 -103.5t-24.5 -125v-2q0 -66 24 -125t67 -102.5t101.5 -69t126.5 -25.5zM437 -14q-76 0 -142 29t-114.5 78.5t-76.5 115t-28 139.5v2q0 74 28 140t77 116t115.5 79t142.5 29t142 -29t114.5 -78.5
t76.5 -115t28 -139.5v-2q0 -74 -28 -140t-77 -116t-115.5 -79t-142.5 -29z" />
    <glyph glyph-name="macron" unicode="&#xaf;" 
d="M179 708h376l-31 -116h-375z" />
    <glyph glyph-name="macron" unicode="&#x2c9;" 
d="M179 708h376l-31 -116h-375z" />
    <glyph glyph-name="degree" unicode="&#xb0;" horiz-adv-x="452" 
d="M265 440q21 0 37.5 9t28 24t17.5 33t6 36q0 32 -19 52.5t-50 20.5q-21 0 -37.5 -9t-28 -24t-17.5 -33t-6 -36q0 -32 19 -52.5t50 -20.5zM260 346q-39 0 -70.5 12.5t-53.5 34.5t-34 51.5t-12 63.5q0 41 15.5 77.5t42 64t63 43.5t78.5 16q40 0 71.5 -12.5t53.5 -34.5
t33.5 -51.5t11.5 -63.5q0 -41 -15.5 -77.5t-42 -64t-63 -43.5t-78.5 -16z" />
    <glyph glyph-name="plusminus" unicode="&#xb1;" horiz-adv-x="624" 
d="M265 -14q-59 0 -104.5 11t-80.5 30t-60 42.5t-42 49.5l129 112q34 -41 71.5 -61t88.5 -20q52 0 79.5 23.5t27.5 51.5q0 26 -19.5 40.5t-67.5 14.5h-72l39 146h68q49 0 79.5 18t30.5 52q0 24 -20.5 39t-50.5 15q-42 0 -78 -17.5t-76 -50.5l-99 122q49 47 117 78.5
t160 31.5q58 0 103 -15t76 -40t47 -57.5t16 -68.5q0 -72 -43.5 -117.5t-119.5 -66.5q46 -17 75 -52t29 -89q0 -49 -22.5 -89.5t-63 -70t-96 -46t-121.5 -16.5z" />
    <glyph glyph-name="acute" unicode="&#xb4;" 
d="M355 772l173 -57l-181 -128h-147z" />
    <glyph glyph-name="mu" unicode="&#xb5;" horiz-adv-x="813" 
d="M402 157q14 0 26.5 2.5t23.5 6.5l-77 104l139 92l60 -94q15 26 23 55.5t8 58.5q0 34 -10 63t-29.5 50t-48 32.5t-65.5 11.5q-46 0 -83.5 -20.5t-64 -52.5t-41 -72t-14.5 -80q0 -34 10 -63t29.5 -50t48 -32.5t65.5 -11.5zM558 24q-80 -37 -172 -37q-75 0 -136.5 24
t-105.5 66t-68 99.5t-24 124.5q0 80 31 154.5t86.5 131.5t132 91.5t167.5 34.5q75 0 136.5 -24t105.5 -66t68 -99.5t24 -124.5q0 -78 -30.5 -151t-84.5 -130l53 -72l-138 -91z" />
    <glyph glyph-name="mu" unicode="&#x3bc;" horiz-adv-x="813" 
d="M402 157q14 0 26.5 2.5t23.5 6.5l-77 104l139 92l60 -94q15 26 23 55.5t8 58.5q0 34 -10 63t-29.5 50t-48 32.5t-65.5 11.5q-46 0 -83.5 -20.5t-64 -52.5t-41 -72t-14.5 -80q0 -34 10 -63t29.5 -50t48 -32.5t65.5 -11.5zM558 24q-80 -37 -172 -37q-75 0 -136.5 24
t-105.5 66t-68 99.5t-24 124.5q0 80 31 154.5t86.5 131.5t132 91.5t167.5 34.5q75 0 136.5 -24t105.5 -66t68 -99.5t24 -124.5q0 -78 -30.5 -151t-84.5 -130l53 -72l-138 -91z" />
    <glyph glyph-name="paragraph" unicode="&#xb6;" horiz-adv-x="597" 
d="M326 212q-132 7 -194.5 60t-62.5 149q0 61 22.5 112t66.5 88t110.5 58t153.5 21h230l-188 -700h-194z" />
    <glyph glyph-name="periodcentered" unicode="&#xb7;" horiz-adv-x="302" 
d="M87 410h198l-53 -195h-197z" />
    <glyph glyph-name="periodcentered" unicode="&#x2219;" horiz-adv-x="302" 
d="M87 410h198l-53 -195h-197z" />
    <glyph glyph-name="cedilla" unicode="&#xb8;" 
d="M21 -109l125 124h129l-115 -188z" />
    <glyph glyph-name="ordmasculine" unicode="&#xba;" horiz-adv-x="402" 
d="M254 482q15 0 28 7t22 18.5t14 26t5 29.5q0 25 -14 40.5t-37 15.5q-31 0 -50 -25.5t-19 -56.5q0 -24 14 -39.5t37 -15.5zM69 347h283l-20 -77h-284zM249 395q-34 0 -61.5 10.5t-46.5 29.5t-29 44.5t-10 55.5q0 33 13.5 64t37 54.5t55.5 38t70 14.5q34 0 61 -10.5
t46 -29.5t29 -44.5t10 -55.5q0 -33 -13.5 -64t-36.5 -54.5t-55.5 -38t-69.5 -14.5z" />
    <glyph glyph-name="guillemotright" unicode="&#xbb;" horiz-adv-x="630" 
d="M-6 132l171 166l-77 155l142 63l112 -234l-2 -8l-241 -237zM267 124l166 161l-82 165l142 63l108 -224l-14 -49l-215 -212z" />
    <glyph glyph-name="questiondown" unicode="&#xbf;" horiz-adv-x="540" 
d="M240 -10q-53 0 -95 14t-71.5 39t-45 58t-15.5 71q0 85 61 145t191 81l30 74h120l-17 -168l-10 -8q-181 -15 -181 -87q0 -23 16 -36.5t50 -13.5q32 0 66 13t69 41l78 -135q-49 -43 -113 -65.5t-133 -22.5zM319 700h198l-46 -170h-198z" />
    <glyph glyph-name="Agrave" unicode="&#xc0;" horiz-adv-x="775" 
d="M347 875l179 57l55 -185h-123zM475 276l-25 201l-131 -201h156zM413 705h190l109 -705h-204l-17 125h-270l-84 -125h-211z" />
    <glyph glyph-name="Aacute" unicode="&#xc1;" horiz-adv-x="775" 
d="M580 932l173 -57l-181 -128h-147zM475 276l-25 201l-131 -201h156zM413 705h190l109 -705h-204l-17 125h-270l-84 -125h-211z" />
    <glyph glyph-name="Acircumflex" unicode="&#xc2;" horiz-adv-x="775" 
d="M471 912h154l84 -165h-113l-68 61l-101 -61h-128zM475 276l-25 201l-131 -201h156zM413 705h190l109 -705h-204l-17 125h-270l-84 -125h-211z" />
    <glyph glyph-name="Atilde" unicode="&#xc3;" horiz-adv-x="775" 
d="M301 784q29 71 71 107.5t90 36.5q26 0 46.5 -9t37.5 -21t28.5 -18.5t22.5 -6.5q21 0 36.5 15.5t29.5 41.5l89 -40q-29 -71 -71 -107.5t-90 -36.5q-26 0 -46.5 9t-37.5 21t-29 18.5t-23 6.5q-20 0 -35.5 -15.5t-29.5 -41.5zM475 276l-25 201l-131 -201h156zM413 705h190
l109 -705h-204l-17 125h-270l-84 -125h-211z" />
    <glyph glyph-name="Adieresis" unicode="&#xc4;" horiz-adv-x="775" 
d="M358 890h166l-39 -143h-166zM577 890h166l-39 -143h-166zM475 276l-25 201l-131 -201h156zM413 705h190l109 -705h-204l-17 125h-270l-84 -125h-211z" />
    <glyph glyph-name="Aring" unicode="&#xc5;" horiz-adv-x="775" 
d="M475 276l-25 201l-131 -201h156zM506 698q16 0 29.5 7t23.5 18.5t15 26.5t5 31q0 22 -13.5 37.5t-38.5 15.5q-16 0 -29.5 -7t-23 -19t-14.5 -27t-5 -30q0 -23 13.5 -38t37.5 -15zM-74 0l238 344l238 344q-19 28 -19 61q0 30 11.5 56t31.5 46t46.5 31.5t57.5 11.5
q56 0 88.5 -32t32.5 -80q0 -29 -12 -55t-32 -45l105 -682h-204l-17 125h-270l-84 -125h-211z" />
    <glyph glyph-name="AE" unicode="&#xc6;" horiz-adv-x="1080" 
d="M496 276l71 268h-13l-206 -268h148zM474 700h673l-44 -165h-349l-28 -106h313l-41 -153h-313l-31 -111h354l-44 -165h-543l34 125h-223l-97 -125h-211z" />
    <glyph glyph-name="Ccedilla" unicode="&#xc7;" horiz-adv-x="727" 
d="M265 3q-98 29 -156 104t-58 185q0 77 30.5 152.5t87 135t136 96.5t178.5 37q109 0 183.5 -48t105.5 -129l-167 -90q-21 43 -55 66.5t-87 23.5q-44 0 -82 -19t-66 -50.5t-44.5 -73.5t-16.5 -87q0 -66 39.5 -104.5t100.5 -38.5q46 0 81 18.5t69 52.5l131 -116
q-51 -57 -119.5 -93t-165.5 -38l-99 -160l-139 64z" />
    <glyph glyph-name="Egrave" unicode="&#xc8;" horiz-adv-x="669" 
d="M317 875l179 57l55 -185h-123zM176 700h561l-45 -165h-368l-29 -106h334l-41 -153h-334l-30 -111h374l-44 -165h-566z" />
    <glyph glyph-name="Eacute" unicode="&#xc9;" horiz-adv-x="669" 
d="M525 932l173 -57l-181 -128h-147zM176 700h561l-45 -165h-368l-29 -106h334l-41 -153h-334l-30 -111h374l-44 -165h-566z" />
    <glyph glyph-name="Ecircumflex" unicode="&#xca;" horiz-adv-x="669" 
d="M432 912h154l84 -165h-113l-68 61l-101 -61h-128zM176 700h561l-45 -165h-368l-29 -106h334l-41 -153h-334l-30 -111h374l-44 -165h-566z" />
    <glyph glyph-name="Edieresis" unicode="&#xcb;" horiz-adv-x="669" 
d="M312 890h166l-39 -143h-166zM531 890h166l-39 -143h-166zM176 700h561l-45 -165h-368l-29 -106h334l-41 -153h-334l-30 -111h374l-44 -165h-566z" />
    <glyph glyph-name="Igrave" unicode="&#xcc;" horiz-adv-x="325" 
d="M129 875l179 57l55 -185h-123zM181 700h194l-188 -700h-194z" />
    <glyph glyph-name="Iacute" unicode="&#xcd;" horiz-adv-x="325" 
d="M354 932l173 -57l-181 -128h-147zM181 700h194l-188 -700h-194z" />
    <glyph glyph-name="Icircumflex" unicode="&#xce;" horiz-adv-x="325" 
d="M248 912h154l84 -165h-113l-68 61l-101 -61h-128zM181 700h194l-188 -700h-194z" />
    <glyph glyph-name="Idieresis" unicode="&#xcf;" horiz-adv-x="325" 
d="M136 890h166l-39 -143h-166zM355 890h166l-39 -143h-166zM181 700h194l-188 -700h-194z" />
    <glyph glyph-name="Eth" unicode="&#xd0;" horiz-adv-x="800" 
d="M333 166q62 0 116 19t89 54q29 29 46 69t17 82q0 33 -9.5 57.5t-26.5 41.5q-21 20 -54.5 32t-86.5 12h-58l-28 -104h114l-41 -153h-114l-30 -110h66zM107 276h-84l42 153h84l73 271h221q102 0 168 -25t106 -65q76 -76 76 -205q0 -79 -29 -149t-86 -127q-63 -63 -154 -96
t-213 -33h-277z" />
    <glyph glyph-name="Ntilde" unicode="&#xd1;" horiz-adv-x="781" 
d="M299 784q29 71 71 107.5t90 36.5q26 0 46.5 -9t37.5 -21t28.5 -18.5t22.5 -6.5q21 0 36.5 15.5t29.5 41.5l89 -40q-29 -71 -71 -107.5t-90 -36.5q-26 0 -46.5 9t-37.5 21t-29 18.5t-23 6.5q-20 0 -35.5 -15.5t-29.5 -41.5zM176 700h181l181 -389l105 389h193l-188 -700
h-170l-189 403l-108 -403h-193z" />
    <glyph glyph-name="Ograve" unicode="&#xd2;" horiz-adv-x="813" 
d="M344 875l179 57l55 -185h-123zM403 161q46 0 83.5 20t63.5 52.5t40.5 72t14.5 78.5q0 33 -10 61.5t-29.5 49.5t-48 32.5t-65.5 11.5q-46 0 -83 -20t-63.5 -52.5t-41 -72t-14.5 -78.5q0 -33 10 -61.5t29.5 -49.5t48 -32.5t65.5 -11.5zM386 -13q-75 0 -136.5 24t-105.5 66
t-68 99.5t-24 124.5q0 80 31 154.5t86.5 131.5t132 91.5t167.5 34.5q75 0 136.5 -24t105.5 -66t68 -99.5t24 -124.5q0 -80 -31 -154.5t-86.5 -131.5t-132 -91.5t-167.5 -34.5z" />
    <glyph glyph-name="Oacute" unicode="&#xd3;" horiz-adv-x="813" 
d="M549 932l173 -57l-181 -128h-147zM403 161q46 0 83.5 20t63.5 52.5t40.5 72t14.5 78.5q0 33 -10 61.5t-29.5 49.5t-48 32.5t-65.5 11.5q-46 0 -83 -20t-63.5 -52.5t-41 -72t-14.5 -78.5q0 -33 10 -61.5t29.5 -49.5t48 -32.5t65.5 -11.5zM386 -13q-75 0 -136.5 24
t-105.5 66t-68 99.5t-24 124.5q0 80 31 154.5t86.5 131.5t132 91.5t167.5 34.5q75 0 136.5 -24t105.5 -66t68 -99.5t24 -124.5q0 -80 -31 -154.5t-86.5 -131.5t-132 -91.5t-167.5 -34.5z" />
    <glyph glyph-name="Ocircumflex" unicode="&#xd4;" horiz-adv-x="813" 
d="M468 912h154l84 -165h-113l-68 61l-101 -61h-128zM403 161q46 0 83.5 20t63.5 52.5t40.5 72t14.5 78.5q0 33 -10 61.5t-29.5 49.5t-48 32.5t-65.5 11.5q-46 0 -83 -20t-63.5 -52.5t-41 -72t-14.5 -78.5q0 -33 10 -61.5t29.5 -49.5t48 -32.5t65.5 -11.5zM386 -13
q-75 0 -136.5 24t-105.5 66t-68 99.5t-24 124.5q0 80 31 154.5t86.5 131.5t132 91.5t167.5 34.5q75 0 136.5 -24t105.5 -66t68 -99.5t24 -124.5q0 -80 -31 -154.5t-86.5 -131.5t-132 -91.5t-167.5 -34.5z" />
    <glyph glyph-name="Otilde" unicode="&#xd5;" horiz-adv-x="813" 
d="M301 784q29 71 71 107.5t90 36.5q26 0 46.5 -9t37.5 -21t28.5 -18.5t22.5 -6.5q21 0 36.5 15.5t29.5 41.5l89 -40q-29 -71 -71 -107.5t-90 -36.5q-26 0 -46.5 9t-37.5 21t-29 18.5t-23 6.5q-20 0 -35.5 -15.5t-29.5 -41.5zM403 161q46 0 83.5 20t63.5 52.5t40.5 72
t14.5 78.5q0 33 -10 61.5t-29.5 49.5t-48 32.5t-65.5 11.5q-46 0 -83 -20t-63.5 -52.5t-41 -72t-14.5 -78.5q0 -33 10 -61.5t29.5 -49.5t48 -32.5t65.5 -11.5zM386 -13q-75 0 -136.5 24t-105.5 66t-68 99.5t-24 124.5q0 80 31 154.5t86.5 131.5t132 91.5t167.5 34.5
q75 0 136.5 -24t105.5 -66t68 -99.5t24 -124.5q0 -80 -31 -154.5t-86.5 -131.5t-132 -91.5t-167.5 -34.5z" />
    <glyph glyph-name="Odieresis" unicode="&#xd6;" horiz-adv-x="813" 
d="M357 890h166l-39 -143h-166zM576 890h166l-39 -143h-166zM403 161q46 0 83.5 20t63.5 52.5t40.5 72t14.5 78.5q0 33 -10 61.5t-29.5 49.5t-48 32.5t-65.5 11.5q-46 0 -83 -20t-63.5 -52.5t-41 -72t-14.5 -78.5q0 -33 10 -61.5t29.5 -49.5t48 -32.5t65.5 -11.5zM386 -13
q-75 0 -136.5 24t-105.5 66t-68 99.5t-24 124.5q0 80 31 154.5t86.5 131.5t132 91.5t167.5 34.5q75 0 136.5 -24t105.5 -66t68 -99.5t24 -124.5q0 -80 -31 -154.5t-86.5 -131.5t-132 -91.5t-167.5 -34.5z" />
    <glyph glyph-name="Oslash" unicode="&#xd8;" horiz-adv-x="813" 
d="M403 155q47 0 85.5 21t65.5 54t42 74t15 81q0 27 -8 53l-287 -262q18 -10 39.5 -15.5t47.5 -5.5zM547 518q-38 27 -95 27q-47 0 -85 -21t-65 -54t-42 -74t-15 -81q0 -35 10 -62zM386 -13q-63 0 -116.5 17t-95.5 49l-63 -58h-147l141 128q-26 38 -39.5 82.5t-13.5 95.5
q0 80 31 154.5t86.5 131.5t132 91.5t167.5 34.5q66 0 121 -18.5t98 -51.5l68 62h147l-149 -135q49 -74 49 -171q0 -80 -31 -154.5t-86.5 -131.5t-132 -91.5t-167.5 -34.5z" />
    <glyph glyph-name="Ugrave" unicode="&#xd9;" horiz-adv-x="760" 
d="M342 873l179 57l55 -185h-123zM342 -13q-136 0 -209.5 64.5t-73.5 180.5q0 26 4 54.5t12 57.5l96 356h196l-99 -370q-5 -17 -7.5 -33t-2.5 -33q0 -48 28 -75t81 -27q57 0 94 37q20 19 34 46.5t25 69.5l104 385h196l-111 -414q-37 -137 -109 -209q-47 -47 -112 -68.5
t-146 -21.5z" />
    <glyph glyph-name="Uacute" unicode="&#xda;" horiz-adv-x="760" 
d="M561 930l173 -57l-181 -128h-147zM342 -13q-136 0 -209.5 64.5t-73.5 180.5q0 26 4 54.5t12 57.5l96 356h196l-99 -370q-5 -17 -7.5 -33t-2.5 -33q0 -48 28 -75t81 -27q57 0 94 37q20 19 34 46.5t25 69.5l104 385h196l-111 -414q-37 -137 -109 -209q-47 -47 -112 -68.5
t-146 -21.5z" />
    <glyph glyph-name="Ucircumflex" unicode="&#xdb;" horiz-adv-x="760" 
d="M466 912h154l84 -165h-113l-68 61l-101 -61h-128zM342 -13q-136 0 -209.5 64.5t-73.5 180.5q0 26 4 54.5t12 57.5l96 356h196l-99 -370q-5 -17 -7.5 -33t-2.5 -33q0 -48 28 -75t81 -27q57 0 94 37q20 19 34 46.5t25 69.5l104 385h196l-111 -414q-37 -137 -109 -209
q-47 -47 -112 -68.5t-146 -21.5z" />
    <glyph glyph-name="Udieresis" unicode="&#xdc;" horiz-adv-x="760" 
d="M353 890h166l-39 -143h-166zM572 890h166l-39 -143h-166zM342 -13q-136 0 -209.5 64.5t-73.5 180.5q0 26 4 54.5t12 57.5l96 356h196l-99 -370q-5 -17 -7.5 -33t-2.5 -33q0 -48 28 -75t81 -27q57 0 94 37q20 19 34 46.5t25 69.5l104 385h196l-111 -414
q-37 -137 -109 -209q-47 -47 -112 -68.5t-146 -21.5z" />
    <glyph glyph-name="Yacute" unicode="&#xdd;" horiz-adv-x="677" 
d="M512 932l173 -57l-181 -128h-147zM232 271l-141 429h209l69 -262l211 262h232l-391 -450l-67 -250h-195z" />
    <glyph glyph-name="Thorn" unicode="&#xde;" horiz-adv-x="682" 
d="M326 260q72 0 111 29.5t39 78.5q0 30 -20 50q-14 14 -35 20t-48 6h-71l-49 -184h73zM176 700h195l-26 -100h37q85 0 142.5 -17.5t95.5 -55.5q54 -56 54 -141q0 -65 -25 -117t-70.5 -88t-109 -55.5t-139.5 -19.5h-119l-28 -106h-195z" />
    <glyph glyph-name="germandbls" unicode="&#xdf;" horiz-adv-x="639" 
d="M271 135q38 0 64 7.5t42.5 20.5t24 29.5t7.5 34.5q0 26 -21.5 46t-72.5 25l27 101q65 14 93 44.5t28 70.5q0 32 -19 49.5t-45 17.5q-38 0 -63 -28.5t-39 -81.5l-126 -471h-190l129 479q17 63 39.5 107.5t54.5 76.5q37 37 86.5 56t115.5 19q54 0 97 -14.5t73.5 -40t47 -62
t16.5 -79.5q0 -73 -39.5 -124.5t-117.5 -74.5q48 -17 77 -51t29 -83q0 -46 -21 -87t-64.5 -70.5t-110.5 -44.5t-158 -10z" />
    <glyph glyph-name="agrave" unicode="&#xe0;" horiz-adv-x="597" 
d="M223 715l179 57l55 -185h-123zM240 106q37 0 68.5 28t42.5 70l5 18q-16 5 -33.5 8.5t-37.5 3.5q-45 0 -72 -20.5t-27 -57.5q0 -23 15 -36.5t39 -13.5zM152 -11q-67 0 -109 39.5t-42 107.5q0 45 17 80t48.5 60t75 38t97.5 13q37 0 71 -5.5t66 -15.5l2 7q2 7 3.5 15t1.5 18
q0 26 -21.5 42t-71.5 16q-38 0 -77.5 -8t-68.5 -19l-27 138q43 15 98.5 24t114.5 9q122 0 181.5 -45.5t59.5 -126.5q0 -36 -11 -78l-80 -298h-187l15 58q-35 -32 -71.5 -50.5t-84.5 -18.5z" />
    <glyph glyph-name="aacute" unicode="&#xe1;" horiz-adv-x="597" 
d="M434 772l173 -57l-181 -128h-147zM240 106q37 0 68.5 28t42.5 70l5 18q-16 5 -33.5 8.5t-37.5 3.5q-45 0 -72 -20.5t-27 -57.5q0 -23 15 -36.5t39 -13.5zM152 -11q-67 0 -109 39.5t-42 107.5q0 45 17 80t48.5 60t75 38t97.5 13q37 0 71 -5.5t66 -15.5l2 7q2 7 3.5 15
t1.5 18q0 26 -21.5 42t-71.5 16q-38 0 -77.5 -8t-68.5 -19l-27 138q43 15 98.5 24t114.5 9q122 0 181.5 -45.5t59.5 -126.5q0 -36 -11 -78l-80 -298h-187l15 58q-35 -32 -71.5 -50.5t-84.5 -18.5z" />
    <glyph glyph-name="acircumflex" unicode="&#xe2;" horiz-adv-x="597" 
d="M348 752h154l84 -165h-113l-68 61l-101 -61h-128zM240 106q37 0 68.5 28t42.5 70l5 18q-16 5 -33.5 8.5t-37.5 3.5q-45 0 -72 -20.5t-27 -57.5q0 -23 15 -36.5t39 -13.5zM152 -11q-67 0 -109 39.5t-42 107.5q0 45 17 80t48.5 60t75 38t97.5 13q37 0 71 -5.5t66 -15.5l2 7
q2 7 3.5 15t1.5 18q0 26 -21.5 42t-71.5 16q-38 0 -77.5 -8t-68.5 -19l-27 138q43 15 98.5 24t114.5 9q122 0 181.5 -45.5t59.5 -126.5q0 -36 -11 -78l-80 -298h-187l15 58q-35 -32 -71.5 -50.5t-84.5 -18.5z" />
    <glyph glyph-name="atilde" unicode="&#xe3;" horiz-adv-x="597" 
d="M168 624q29 71 71 107.5t90 36.5q26 0 46.5 -9t37.5 -21t28.5 -18.5t22.5 -6.5q21 0 36.5 15.5t29.5 41.5l89 -40q-29 -71 -71 -107.5t-90 -36.5q-26 0 -46.5 9t-37.5 21t-29 18.5t-23 6.5q-20 0 -35.5 -15.5t-29.5 -41.5zM240 106q37 0 68.5 28t42.5 70l5 18
q-16 5 -33.5 8.5t-37.5 3.5q-45 0 -72 -20.5t-27 -57.5q0 -23 15 -36.5t39 -13.5zM152 -11q-67 0 -109 39.5t-42 107.5q0 45 17 80t48.5 60t75 38t97.5 13q37 0 71 -5.5t66 -15.5l2 7q2 7 3.5 15t1.5 18q0 26 -21.5 42t-71.5 16q-38 0 -77.5 -8t-68.5 -19l-27 138
q43 15 98.5 24t114.5 9q122 0 181.5 -45.5t59.5 -126.5q0 -36 -11 -78l-80 -298h-187l15 58q-35 -32 -71.5 -50.5t-84.5 -18.5z" />
    <glyph glyph-name="adieresis" unicode="&#xe4;" horiz-adv-x="597" 
d="M229 731h166l-39 -143h-166zM448 731h166l-39 -143h-166zM240 106q37 0 68.5 28t42.5 70l5 18q-16 5 -33.5 8.5t-37.5 3.5q-45 0 -72 -20.5t-27 -57.5q0 -23 15 -36.5t39 -13.5zM152 -11q-67 0 -109 39.5t-42 107.5q0 45 17 80t48.5 60t75 38t97.5 13q37 0 71 -5.5
t66 -15.5l2 7q2 7 3.5 15t1.5 18q0 26 -21.5 42t-71.5 16q-38 0 -77.5 -8t-68.5 -19l-27 138q43 15 98.5 24t114.5 9q122 0 181.5 -45.5t59.5 -126.5q0 -36 -11 -78l-80 -298h-187l15 58q-35 -32 -71.5 -50.5t-84.5 -18.5z" />
    <glyph glyph-name="aring" unicode="&#xe5;" horiz-adv-x="597" 
d="M405 653q16 0 29.5 7t23.5 18.5t15 26.5t5 31q0 22 -14 37.5t-38 15.5q-17 0 -30 -7t-23 -19t-15 -27t-5 -30q0 -23 14 -38t38 -15zM402 592q-56 0 -88 32t-32 80q0 30 11.5 56t31.5 46t46.5 31.5t57.5 11.5q56 0 88 -32t32 -80q0 -29 -11.5 -55.5t-31.5 -46.5
t-46.5 -31.5t-57.5 -11.5zM240 106q37 0 68.5 28t42.5 70l5 18q-16 5 -33.5 8.5t-37.5 3.5q-45 0 -72 -20.5t-27 -57.5q0 -23 15 -36.5t39 -13.5zM152 -11q-67 0 -109 39.5t-42 107.5q0 45 17 80t48.5 60t75 38t97.5 13q37 0 71 -5.5t66 -15.5l2 7q2 7 3.5 15t1.5 18
q0 26 -21.5 42t-71.5 16q-38 0 -77.5 -8t-68.5 -19l-27 138q43 15 98.5 24t114.5 9q122 0 181.5 -45.5t59.5 -126.5q0 -36 -11 -78l-80 -298h-187l15 58q-35 -32 -71.5 -50.5t-84.5 -18.5z" />
    <glyph glyph-name="ae" unicode="&#xe6;" horiz-adv-x="931" 
d="M364 218q-21 9 -40.5 12.5t-38.5 3.5q-45 0 -72 -20.5t-27 -57.5q0 -23 16.5 -37t47.5 -14q29 0 62 14t61 40q-7 27 -9 59zM739 315q5 15 5 29q0 28 -18 48.5t-56 20.5t-72.5 -24.5t-51.5 -73.5h193zM407 85q-51 -51 -108 -73.5t-125 -22.5q-81 0 -127 39t-46 108
q0 45 17 80t48.5 60t75 38t97.5 13q37 0 71 -5.5t66 -15.5l2 7q2 7 3.5 15t1.5 18q0 26 -21.5 42t-71.5 16q-38 0 -77.5 -8t-68.5 -19l-27 138q43 15 98.5 24t114.5 9q64 0 107.5 -16.5t68.5 -47.5q38 32 85 50.5t100 18.5q57 0 99 -18.5t69 -49.5t40.5 -71.5t13.5 -84.5
q0 -28 -5.5 -56.5t-15.5 -54.5h-359q3 -41 27.5 -65t73.5 -24q29 0 56.5 10t58.5 33l88 -104q-41 -36 -97.5 -58.5t-126.5 -22.5q-69 0 -121.5 25.5t-84.5 72.5z" />
    <glyph glyph-name="ccedilla" unicode="&#xe7;" horiz-adv-x="563" 
d="M56 -109l116 115q-66 26 -105 82t-39 136q0 68 25.5 128t69.5 104.5t103 70t127 25.5q47 0 85 -11.5t66.5 -31.5t48 -47t30.5 -58l-149 -77q-14 32 -35 50t-58 18q-27 0 -50.5 -13.5t-41.5 -36t-28 -51.5t-10 -60q0 -42 23.5 -66t57.5 -24q31 0 54.5 12t49.5 38l116 -101
q-40 -46 -91 -74.5t-127 -31.5l-99 -160z" />
    <glyph glyph-name="egrave" unicode="&#xe8;" horiz-adv-x="601" 
d="M219 715l179 57l55 -185h-123zM409 315q5 15 5 29q0 28 -18 48.5t-56 20.5t-72.5 -24.5t-51.5 -73.5h193zM203 218q3 -41 27.5 -65t73.5 -24q29 0 56.5 10t58.5 33l88 -104q-42 -36 -96 -58.5t-125 -22.5q-60 0 -108 17t-81 48.5t-51 75.5t-18 99q0 60 22.5 118.5
t65 104.5t102.5 74.5t135 28.5q60 0 103.5 -18.5t71.5 -49.5t41.5 -71.5t13.5 -84.5q0 -28 -5.5 -56.5t-15.5 -54.5h-359z" />
    <glyph glyph-name="eacute" unicode="&#xe9;" horiz-adv-x="601" 
d="M429 772l173 -57l-181 -128h-147zM409 315q5 15 5 29q0 28 -18 48.5t-56 20.5t-72.5 -24.5t-51.5 -73.5h193zM203 218q3 -41 27.5 -65t73.5 -24q29 0 56.5 10t58.5 33l88 -104q-42 -36 -96 -58.5t-125 -22.5q-60 0 -108 17t-81 48.5t-51 75.5t-18 99q0 60 22.5 118.5
t65 104.5t102.5 74.5t135 28.5q60 0 103.5 -18.5t71.5 -49.5t41.5 -71.5t13.5 -84.5q0 -28 -5.5 -56.5t-15.5 -54.5h-359z" />
    <glyph glyph-name="ecircumflex" unicode="&#xea;" horiz-adv-x="601" 
d="M340 752h154l84 -165h-113l-68 61l-101 -61h-128zM409 315q5 15 5 29q0 28 -18 48.5t-56 20.5t-72.5 -24.5t-51.5 -73.5h193zM203 218q3 -41 27.5 -65t73.5 -24q29 0 56.5 10t58.5 33l88 -104q-42 -36 -96 -58.5t-125 -22.5q-60 0 -108 17t-81 48.5t-51 75.5t-18 99
q0 60 22.5 118.5t65 104.5t102.5 74.5t135 28.5q60 0 103.5 -18.5t71.5 -49.5t41.5 -71.5t13.5 -84.5q0 -28 -5.5 -56.5t-15.5 -54.5h-359z" />
    <glyph glyph-name="edieresis" unicode="&#xeb;" horiz-adv-x="601" 
d="M224 730h166l-39 -143h-166zM443 730h166l-39 -143h-166zM409 315q5 15 5 29q0 28 -18 48.5t-56 20.5t-72.5 -24.5t-51.5 -73.5h193zM203 218q3 -41 27.5 -65t73.5 -24q29 0 56.5 10t58.5 33l88 -104q-42 -36 -96 -58.5t-125 -22.5q-60 0 -108 17t-81 48.5t-51 75.5
t-18 99q0 60 22.5 118.5t65 104.5t102.5 74.5t135 28.5q60 0 103.5 -18.5t71.5 -49.5t41.5 -71.5t13.5 -84.5q0 -28 -5.5 -56.5t-15.5 -54.5h-359z" />
    <glyph glyph-name="igrave" unicode="&#xec;" horiz-adv-x="301" 
d="M87 715l179 57l55 -185h-123zM128 541h190l-145 -541h-190z" />
    <glyph glyph-name="iacute" unicode="&#xed;" horiz-adv-x="301" 
d="M293 772l173 -57l-181 -128h-147zM128 541h190l-145 -541h-190z" />
    <glyph glyph-name="icircumflex" unicode="&#xee;" horiz-adv-x="301" 
d="M196 752h154l84 -165h-113l-68 61l-101 -61h-128zM128 541h190l-145 -541h-190z" />
    <glyph glyph-name="idieresis" unicode="&#xef;" horiz-adv-x="301" 
d="M80 730h166l-39 -143h-166zM299 730h166l-39 -143h-166zM128 541h190l-145 -541h-190z" />
    <glyph glyph-name="eth" unicode="&#xf0;" horiz-adv-x="642" 
d="M301 146q27 0 49 10t37.5 26t24.5 37t9 44q0 40 -26 64.5t-66 24.5q-26 0 -48 -9.5t-38 -25t-25 -36.5t-9 -45q0 -42 27 -66t65 -24zM288 -12q-59 0 -107 17.5t-82.5 48.5t-53.5 73.5t-19 93.5q0 52 20 99.5t56 82.5t86 56t109 21q40 0 72.5 -10.5t58.5 -30.5l-55 119
l-131 -45l-41 89l133 42l-39 86h181l15 -34l121 41l41 -89l-124 -39l39 -89q44 -98 44 -199q0 -71 -22.5 -132t-64.5 -105.5t-102 -70t-135 -25.5z" />
    <glyph glyph-name="ntilde" unicode="&#xf1;" horiz-adv-x="630" 
d="M179 624q29 71 71 107.5t90 36.5q26 0 46.5 -9t37.5 -21t28.5 -18.5t22.5 -6.5q21 0 36.5 15.5t29.5 41.5l89 -40q-29 -71 -71 -107.5t-90 -36.5q-26 0 -46.5 9t-37.5 21t-29 18.5t-23 6.5q-20 0 -35.5 -15.5t-29.5 -41.5zM124 541h190l-17 -62q28 29 67.5 51.5
t87.5 22.5q74 0 115.5 -43.5t41.5 -118.5q0 -22 -4.5 -46.5t-11.5 -50.5l-78 -294h-190l76 283q3 11 4.5 23t1.5 21q0 27 -15.5 42t-44.5 15q-40 0 -64 -25.5t-37 -72.5l-77 -286h-190z" />
    <glyph glyph-name="ograve" unicode="&#xf2;" horiz-adv-x="644" 
d="M228 715l179 57l55 -185h-123zM306 145q28 0 51.5 13.5t40 35t25.5 48t9 53.5q0 46 -26 73t-68 27q-28 0 -51.5 -13.5t-40 -35t-25.5 -48t-9 -52.5q0 -47 26 -74t68 -27zM295 -13q-62 0 -111 19.5t-83.5 53t-52.5 79.5t-18 100q0 61 24 118t67 100.5t101 69.5t126 26
q62 0 111.5 -19.5t84 -53t52.5 -79.5t18 -99q0 -62 -24.5 -118.5t-67 -100.5t-101 -70t-126.5 -26z" />
    <glyph glyph-name="oacute" unicode="&#xf3;" horiz-adv-x="644" 
d="M436 772l173 -57l-181 -128h-147zM306 145q28 0 51.5 13.5t40 35t25.5 48t9 53.5q0 46 -26 73t-68 27q-28 0 -51.5 -13.5t-40 -35t-25.5 -48t-9 -52.5q0 -47 26 -74t68 -27zM295 -13q-62 0 -111 19.5t-83.5 53t-52.5 79.5t-18 100q0 61 24 118t67 100.5t101 69.5t126 26
q62 0 111.5 -19.5t84 -53t52.5 -79.5t18 -99q0 -62 -24.5 -118.5t-67 -100.5t-101 -70t-126.5 -26z" />
    <glyph glyph-name="ocircumflex" unicode="&#xf4;" horiz-adv-x="644" 
d="M344 752h154l84 -165h-113l-68 61l-101 -61h-128zM306 145q28 0 51.5 13.5t40 35t25.5 48t9 53.5q0 46 -26 73t-68 27q-28 0 -51.5 -13.5t-40 -35t-25.5 -48t-9 -52.5q0 -47 26 -74t68 -27zM295 -13q-62 0 -111 19.5t-83.5 53t-52.5 79.5t-18 100q0 61 24 118t67 100.5
t101 69.5t126 26q62 0 111.5 -19.5t84 -53t52.5 -79.5t18 -99q0 -62 -24.5 -118.5t-67 -100.5t-101 -70t-126.5 -26z" />
    <glyph glyph-name="otilde" unicode="&#xf5;" horiz-adv-x="644" 
d="M170 624q29 71 71 107.5t90 36.5q26 0 46.5 -9t37.5 -21t28.5 -18.5t22.5 -6.5q21 0 36.5 15.5t29.5 41.5l89 -40q-29 -71 -71 -107.5t-90 -36.5q-26 0 -46.5 9t-37.5 21t-29 18.5t-23 6.5q-20 0 -35.5 -15.5t-29.5 -41.5zM306 145q28 0 51.5 13.5t40 35t25.5 48t9 53.5
q0 46 -26 73t-68 27q-28 0 -51.5 -13.5t-40 -35t-25.5 -48t-9 -52.5q0 -47 26 -74t68 -27zM295 -13q-62 0 -111 19.5t-83.5 53t-52.5 79.5t-18 100q0 61 24 118t67 100.5t101 69.5t126 26q62 0 111.5 -19.5t84 -53t52.5 -79.5t18 -99q0 -62 -24.5 -118.5t-67 -100.5
t-101 -70t-126.5 -26z" />
    <glyph glyph-name="odieresis" unicode="&#xf6;" horiz-adv-x="644" 
d="M226 730h166l-39 -143h-166zM445 730h166l-39 -143h-166zM306 145q28 0 51.5 13.5t40 35t25.5 48t9 53.5q0 46 -26 73t-68 27q-28 0 -51.5 -13.5t-40 -35t-25.5 -48t-9 -52.5q0 -47 26 -74t68 -27zM295 -13q-62 0 -111 19.5t-83.5 53t-52.5 79.5t-18 100q0 61 24 118
t67 100.5t101 69.5t126 26q62 0 111.5 -19.5t84 -53t52.5 -79.5t18 -99q0 -62 -24.5 -118.5t-67 -100.5t-101 -70t-126.5 -26z" />
    <glyph glyph-name="oslash" unicode="&#xf8;" horiz-adv-x="644" 
d="M304 138q30 0 55 14t43 36.5t28 51t10 56.5q0 6 -0.5 12t-1.5 11l-187 -168q24 -13 53 -13zM395 388q-22 14 -55 14q-30 0 -55 -14t-43 -36.5t-28 -50.5t-10 -56q0 -7 0.5 -13t1.5 -13zM295 -12q-52 0 -94.5 13.5t-74.5 37.5l-49 -44h-133l122 109q-18 29 -27 64.5
t-9 73.5q0 60 24 116t67 99.5t101 69.5t126 26q53 0 96 -13.5t76 -38.5l50 45h133l-124 -111q35 -58 35 -136q0 -60 -24.5 -116t-67 -99.5t-101 -69.5t-126.5 -26z" />
    <glyph glyph-name="ugrave" unicode="&#xf9;" horiz-adv-x="632" 
d="M255 715l179 57l55 -185h-123zM183 -12q-74 0 -115.5 43.5t-41.5 118.5q0 22 4 46.5t11 50.5l79 294h190l-76 -283q-3 -11 -5 -23t-2 -21q0 -27 15.5 -42t45.5 -15q40 0 64 25.5t36 72.5l77 286h190l-144 -541h-190l16 62q-28 -29 -67 -51.5t-87 -22.5z" />
    <glyph glyph-name="uacute" unicode="&#xfa;" horiz-adv-x="632" 
d="M452 772l173 -57l-181 -128h-147zM183 -12q-74 0 -115.5 43.5t-41.5 118.5q0 22 4 46.5t11 50.5l79 294h190l-76 -283q-3 -11 -5 -23t-2 -21q0 -27 15.5 -42t45.5 -15q40 0 64 25.5t36 72.5l77 286h190l-144 -541h-190l16 62q-28 -29 -67 -51.5t-87 -22.5z" />
    <glyph glyph-name="ucircumflex" unicode="&#xfb;" horiz-adv-x="632" 
d="M362 752h154l84 -165h-113l-68 61l-101 -61h-128zM183 -12q-74 0 -115.5 43.5t-41.5 118.5q0 22 4 46.5t11 50.5l79 294h190l-76 -283q-3 -11 -5 -23t-2 -21q0 -27 15.5 -42t45.5 -15q40 0 64 25.5t36 72.5l77 286h190l-144 -541h-190l16 62q-28 -29 -67 -51.5t-87 -22.5
z" />
    <glyph glyph-name="udieresis" unicode="&#xfc;" horiz-adv-x="632" 
d="M247 730h166l-39 -143h-166zM466 730h166l-39 -143h-166zM183 -12q-74 0 -115.5 43.5t-41.5 118.5q0 22 4 46.5t11 50.5l79 294h190l-76 -283q-3 -11 -5 -23t-2 -21q0 -27 15.5 -42t45.5 -15q40 0 64 25.5t36 72.5l77 286h190l-144 -541h-190l16 62q-28 -29 -67 -51.5
t-87 -22.5z" />
    <glyph glyph-name="yacute" unicode="&#xfd;" horiz-adv-x="622" 
d="M454 772l173 -57l-181 -128h-147zM94 -163q-48 0 -82 10.5t-62 28.5l85 139q37 -27 75 -27q14 0 24.5 4t22.5 16l-70 533h193l22 -325l182 325h200l-335 -538q-29 -46 -57.5 -77.5t-59.5 -51t-64.5 -28.5t-73.5 -9z" />
    <glyph glyph-name="thorn" unicode="&#xfe;" horiz-adv-x="672" 
d="M320 146q27 0 51 12t42 33t28.5 49.5t10.5 60.5q0 44 -25 69.5t-67 25.5q-27 0 -51.5 -12.5t-43 -33.5t-29 -49t-10.5 -59q0 -44 26 -70t68 -26zM174 730h190l-66 -246q32 32 70.5 50.5t83.5 18.5q40 0 75 -15t61 -43.5t41 -70t15 -93.5q0 -73 -23.5 -135.5t-63.5 -108.5
t-93 -72.5t-111 -26.5q-61 0 -100 24t-64 62l-63 -234h-190z" />
    <glyph glyph-name="ydieresis" unicode="&#xff;" horiz-adv-x="622" 
d="M234 730h166l-39 -143h-166zM453 730h166l-39 -143h-166zM94 -163q-48 0 -82 10.5t-62 28.5l85 139q37 -27 75 -27q14 0 24.5 4t22.5 16l-70 533h193l22 -325l182 325h200l-335 -538q-29 -46 -57.5 -77.5t-59.5 -51t-64.5 -28.5t-73.5 -9z" />
    <glyph glyph-name="dotlessi" unicode="&#x131;" horiz-adv-x="301" 
d="M128 541h190l-145 -541h-190z" />
    <glyph glyph-name="Lslash" unicode="&#x141;" horiz-adv-x="662" 
d="M101 245l-82 -22l47 173l82 22l75 282h192l-60 -225l192 53l-46 -174l-192 -52l-36 -132h334l-46 -170h-526z" />
    <glyph glyph-name="lslash" unicode="&#x142;" horiz-adv-x="398" 
d="M103 263l-88 -23l46 170l88 24l79 296h190l-65 -242l88 24l-46 -171l-88 -24l-85 -317h-190z" />
    <glyph glyph-name="OE" unicode="&#x152;" horiz-adv-x="1080" 
d="M464 172l96 356h-49q-62 0 -113.5 -18t-86.5 -53q-28 -28 -44 -66t-16 -80q0 -32 9 -55.5t26 -40.5q20 -20 52.5 -31.5t83.5 -11.5h42zM401 0q-102 0 -168 25t-108 67q-74 74 -74 203q0 79 29 149t86 127q63 63 154 96t213 33h614l-44 -165h-349l-28 -106h313l-41 -153
h-313l-31 -111h354l-44 -165h-563z" />
    <glyph glyph-name="oe" unicode="&#x153;" horiz-adv-x="1002" 
d="M305 146q28 0 51.5 12.5t40.5 33.5t26 47.5t9 54.5q0 45 -25.5 73t-68.5 28q-28 0 -51.5 -13t-40 -34t-25.5 -47.5t-9 -53.5q0 -45 25.5 -73t67.5 -28zM810 315q4 12 4 29q0 28 -18 48.5t-55 20.5q-39 0 -73.5 -24.5t-51.5 -73.5h194zM603 218q3 -41 27.5 -65t74.5 -24
q29 0 56 10t58 33l88 -104q-41 -36 -97 -58.5t-127 -22.5q-63 0 -110 22.5t-76 62.5q-38 -38 -89.5 -61t-111.5 -23q-62 0 -111.5 19.5t-84 53.5t-52.5 80.5t-18 100.5q0 60 24 116.5t66.5 99.5t101 69t126.5 26q67 0 116.5 -24t79.5 -66q39 41 92 65.5t120 24.5
q58 0 101 -18.5t71 -49.5t41.5 -71.5t13.5 -84.5q0 -28 -5.5 -56.5t-15.5 -54.5h-359z" />
    <glyph glyph-name="Scaron" unicode="&#x160;" horiz-adv-x="645" 
d="M275 912h113l68 -61l101 61h128l-172 -165h-154zM302 -12q-103 0 -185.5 33.5t-139.5 94.5l125 129q103 -95 216 -95q35 0 57 14t22 38q0 10 -4.5 18.5t-17.5 17t-35.5 19t-59.5 24.5q-42 16 -75.5 33.5t-57 40t-36.5 51.5t-13 68q0 52 22.5 96t62 75.5t94 49t118.5 17.5
q93 0 164.5 -28t122.5 -76l-120 -134q-40 35 -85.5 56t-99.5 21q-35 0 -55.5 -14.5t-20.5 -35.5q0 -11 5 -18.5t17.5 -15.5t35.5 -18t59 -24q40 -15 73.5 -33t57.5 -40.5t37.5 -52.5t13.5 -69q0 -54 -22 -98.5t-61.5 -76.5t-94.5 -49.5t-120 -17.5z" />
    <glyph glyph-name="scaron" unicode="&#x161;" horiz-adv-x="511" 
d="M182 752h113l68 -61l101 61h128l-172 -165h-154zM230 -13q-78 0 -148 25t-119 69l94 111q39 -35 89 -54t91 -19q24 0 36 9t12 24q0 14 -17 24.5t-57 26.5q-32 13 -60 27t-48.5 32.5t-32 42.5t-11.5 56q0 40 16 75.5t46 61t74 40.5t100 15q74 0 135.5 -23t98.5 -53
l-91 -114q-35 26 -75.5 42t-77.5 16q-47 0 -47 -31q0 -14 16.5 -24t58.5 -27q29 -12 56.5 -25.5t48.5 -31.5t33.5 -42.5t12.5 -58.5q0 -39 -14.5 -74t-44 -62t-73.5 -42.5t-102 -15.5z" />
    <glyph glyph-name="Ydieresis" unicode="&#x178;" horiz-adv-x="677" 
d="M295 890h166l-39 -143h-166zM514 890h166l-39 -143h-166zM232 271l-141 429h209l69 -262l211 262h232l-391 -450l-67 -250h-195z" />
    <glyph glyph-name="Zcaron" unicode="&#x17d;" horiz-adv-x="681" 
d="M300 912h113l68 -61l101 61h128l-172 -165h-154zM1 141l446 395h-328l45 164h595l-38 -141l-446 -395h341l-44 -164h-608z" />
    <glyph glyph-name="zcaron" unicode="&#x17e;" horiz-adv-x="558" 
d="M196 752h113l68 -61l101 61h128l-172 -165h-154zM-6 125l318 265h-238l40 151h486l-33 -125l-319 -265h249l-40 -151h-497z" />
    <glyph glyph-name="florin" unicode="&#x192;" horiz-adv-x="559" 
d="M55 -12q-30 0 -53.5 2.5t-45.5 7.5l32 139q14 -4 25 -5.5t25 -1.5q25 0 44.5 14.5t37.5 55.5l58 129h-63l33 144h94l35 76q37 86 95.5 124.5t149.5 38.5q37 0 67 -4t53 -12l-32 -140q-33 12 -70 12q-35 0 -57 -16.5t-36 -49.5l-13 -29h117l-32 -144h-149l-78 -174
q-41 -93 -98.5 -130t-138.5 -37z" />
    <glyph glyph-name="circumflex" unicode="&#x2c6;" 
d="M302 752h154l84 -165h-113l-68 61l-101 -61h-128z" />
    <glyph glyph-name="caron" unicode="&#x2c7;" 
d="M172 752h113l68 -61l101 61h128l-172 -165h-154z" />
    <glyph glyph-name="breve" unicode="&#x2d8;" 
d="M359 586q-86 0 -132.5 45t-46.5 117v4h113q2 -25 20.5 -41.5t53.5 -16.5q32 0 56.5 16t39.5 42h114q-11 -39 -32.5 -70t-50 -52t-63.5 -32.5t-72 -11.5z" />
    <glyph glyph-name="dotaccent" unicode="&#x2d9;" 
d="M289 730h170l-39 -143h-170z" />
    <glyph glyph-name="ring" unicode="&#x2da;" 
d="M359 653q16 0 29.5 7t23.5 18.5t15 26.5t5 31q0 22 -14 37.5t-38 15.5q-17 0 -30 -7t-23 -19t-15 -27t-5 -30q0 -23 14 -38t38 -15zM356 592q-56 0 -88 32t-32 80q0 30 11.5 56t31.5 46t46.5 31.5t57.5 11.5q56 0 88 -32t32 -80q0 -29 -11.5 -55.5t-31.5 -46.5
t-46.5 -31.5t-57.5 -11.5z" />
    <glyph glyph-name="ogonek" unicode="&#x2db;" 
d="M252 -164q-99 -11 -148.5 10.5t-49.5 68.5q0 21 11.5 46t33.5 49h118q-11 -17 -15 -29.5t-4 -23.5q0 -18 18 -28.5t58 -11.5z" />
    <glyph glyph-name="tilde" unicode="&#x2dc;" 
d="M133 624q29 71 71 107.5t90 36.5q26 0 46.5 -9t37.5 -21t28.5 -18.5t22.5 -6.5q21 0 36.5 15.5t29.5 41.5l89 -40q-29 -71 -71 -107.5t-90 -36.5q-26 0 -46.5 9t-37.5 21t-29 18.5t-23 6.5q-20 0 -35.5 -15.5t-29.5 -41.5z" />
    <glyph glyph-name="hungarumlaut" unicode="&#x2dd;" 
d="M265 772l148 -54l43 54l156 -57l-170 -127h-131l86 109l-150 -109h-131z" />
    <glyph glyph-name="Omega" unicode="&#x3a9;" horiz-adv-x="836" 
d="M536 388h-64l41 153h63l3 11q25 99 82 142t150 43q35 0 64.5 -4.5t56.5 -13.5l-35 -133q-15 5 -32.5 8.5t-31.5 3.5q-29 0 -45 -12.5t-23 -38.5l-3 -9h122l-40 -150h-118l-105 -388h-190zM118 388h-64l41 153h63l3 11q25 99 82 142t150 43q35 0 64.5 -4.5t56.5 -13.5
l-35 -133q-15 5 -32.5 8.5t-31.5 3.5q-29 0 -45 -12.5t-23 -38.5l-3 -9h122l-40 -150h-118l-105 -388h-190z" />
    <glyph glyph-name="Omega" unicode="&#x2126;" horiz-adv-x="836" 
d="M536 388h-64l41 153h63l3 11q25 99 82 142t150 43q35 0 64.5 -4.5t56.5 -13.5l-35 -133q-15 5 -32.5 8.5t-31.5 3.5q-29 0 -45 -12.5t-23 -38.5l-3 -9h122l-40 -150h-118l-105 -388h-190zM118 388h-64l41 153h63l3 11q25 99 82 142t150 43q35 0 64.5 -4.5t56.5 -13.5
l-35 -133q-15 5 -32.5 8.5t-31.5 3.5q-29 0 -45 -12.5t-23 -38.5l-3 -9h122l-40 -150h-118l-105 -388h-190z" />
    <glyph glyph-name="pi" unicode="&#x3c0;" horiz-adv-x="830" 
d="M453 358q28 0 44.5 13t16.5 36v2q0 25 -16.5 37.5t-45.5 12.5h-49v-101h50zM295 549h166q74 0 117 -35.5t43 -100.5v-2q0 -33 -12.5 -59t-34.5 -43t-52 -26t-66 -9h-53v-110h-108v385zM437 26q69 0 127.5 25.5t101.5 70t67.5 103.5t24.5 125v2q0 66 -24.5 125t-67 102.5
t-101 69t-126.5 25.5q-69 0 -127.5 -25.5t-101.5 -70t-67.5 -103.5t-24.5 -125v-2q0 -66 24 -125t67 -102.5t101.5 -69t126.5 -25.5zM437 -14q-76 0 -142 29t-114.5 78.5t-76.5 115t-28 139.5v2q0 74 28 140t77 116t115.5 79t142.5 29t142 -29t114.5 -78.5t76.5 -115
t28 -139.5v-2q0 -74 -28 -140t-77 -116t-115.5 -79t-142.5 -29z" />
    <glyph glyph-name="endash" unicode="&#x2013;" horiz-adv-x="526" 
d="M77 394h438l-44 -163h-438z" />
    <glyph glyph-name="emdash" unicode="&#x2014;" horiz-adv-x="896" 
d="M77 394h808l-44 -163h-808z" />
    <glyph glyph-name="quoteleft" unicode="&#x2018;" horiz-adv-x="302" 
d="M108 513q13 48 32.5 83.5t49.5 59t71.5 36t97.5 15.5l8 -74q-60 -6 -91 -29.5t-40 -64.5h77l-53 -195h-197z" />
    <glyph glyph-name="quoteright" unicode="&#x2019;" horiz-adv-x="302" 
d="M58 411q60 6 91 29.5t40 64.5h-77l53 195h197l-45 -169q-13 -48 -32.5 -83t-49.5 -59t-71.5 -36.5t-97.5 -14.5z" />
    <glyph glyph-name="quotesinglbase" unicode="&#x201a;" horiz-adv-x="302" 
d="M-74 -94q59 6 90 29.5t40 64.5h-76l52 195h198l-45 -168q-13 -48 -33 -83.5t-50 -59.5t-71 -36.5t-97 -14.5z" />
    <glyph glyph-name="quotedblleft" unicode="&#x201c;" horiz-adv-x="565" 
d="M109 512q13 48 32.5 83.5t48.5 59t70 36t97 15.5l8 -74q-59 -6 -89 -29.5t-39 -64.5h74l-52 -195h-195zM375 512q13 48 32.5 83.5t48.5 59t70 36t97 15.5l8 -74q-59 -6 -89 -29.5t-39 -64.5h74l-52 -195h-195z" />
    <glyph glyph-name="quotedblright" unicode="&#x201d;" horiz-adv-x="565" 
d="M59 411q59 6 89 29.5t39 64.5h-74l52 195h195l-45 -169q-13 -48 -32.5 -83t-48.5 -59t-70 -36.5t-97 -14.5zM325 411q59 6 89 29.5t39 64.5h-74l52 195h195l-45 -169q-13 -48 -32.5 -83t-48.5 -59t-70 -36.5t-97 -14.5z" />
    <glyph glyph-name="quotedblbase" unicode="&#x201e;" horiz-adv-x="565" 
d="M-74 -94q59 6 89 29.5t39 64.5h-74l52 195h195l-45 -168q-13 -48 -32.5 -83.5t-48.5 -59.5t-70 -36.5t-97 -14.5zM192 -94q59 6 89 29.5t39 64.5h-74l52 195h195l-45 -168q-13 -48 -32.5 -83.5t-48.5 -59.5t-70 -36.5t-97 -14.5z" />
    <glyph glyph-name="dagger" unicode="&#x2020;" horiz-adv-x="412" 
d="M226 493l-129 -13l28 104l121 -13l19 129h112l-50 -129l128 13l-28 -104l-122 13l-62 -270h-100z" />
    <glyph glyph-name="daggerdbl" unicode="&#x2021;" horiz-adv-x="422" 
d="M132 129l-127 -13l27 104l122 -13l26 143l51 143l-129 -13l28 104l121 -13l19 129h112l-50 -129l127 13l-28 -104l-121 13l-26 -143l-52 -143l130 13l-28 -104l-121 13l-19 -129h-112z" />
    <glyph glyph-name="bullet" unicode="&#x2022;" horiz-adv-x="501" 
d="M246 180q-64 0 -99 37t-35 97q0 38 13.5 76t38 68t59 48.5t76.5 18.5q63 0 98.5 -37t35.5 -97q0 -38 -13.5 -76t-38 -68t-59 -48.5t-76.5 -18.5z" />
    <glyph glyph-name="ellipsis" unicode="&#x2026;" horiz-adv-x="858" 
d="M31 192h195l-52 -192h-194zM311 192h195l-52 -192h-194zM591 192h195l-52 -192h-194z" />
    <glyph glyph-name="perthousand" unicode="&#x2030;" horiz-adv-x="1349" 
d="M688 95q19 0 34 9.5t25.5 25t16.5 34.5t6 38q0 28 -15 45.5t-41 17.5q-19 0 -34 -9.5t-25.5 -24.5t-16.5 -34.5t-6 -38.5q0 -28 15 -45.5t41 -17.5zM1114 95q18 0 33 9.5t25.5 25t16.5 34.5t6 38q0 28 -15 45.5t-41 17.5q-18 0 -33 -9.5t-25.5 -24.5t-16.5 -34.5
t-6 -38.5q0 -28 15 -45.5t41 -17.5zM252 435q18 0 33 9.5t25.5 24.5t16.5 34t6 39q0 28 -15 45.5t-41 17.5q-18 0 -33 -9.5t-25.5 -25t-16.5 -34.5t-6 -38q0 -28 15 -45.5t41 -17.5zM683 -10q-40 0 -71 12.5t-52.5 34t-32.5 51.5t-11 65q0 40 14.5 79t41 70t64 49.5
t83.5 18.5q40 0 71 -12.5t52.5 -34t32.5 -51.5t11 -65q0 -41 -14.5 -79.5t-41 -69.5t-64 -49.5t-83.5 -18.5zM1109 -10q-40 0 -71 12.5t-52.5 34t-32.5 51.5t-11 65q0 40 14.5 79t41 70t64 49.5t82.5 18.5q40 0 71 -12.5t52.5 -34t32.5 -51.5t11 -65q0 -41 -14.5 -79.5
t-41 -69.5t-64 -49.5t-82.5 -18.5zM757 700h141l-690 -700h-140zM247 330q-40 0 -71.5 12t-53 34t-32.5 52t-11 65q0 40 14.5 79t41 70t64 49.5t83.5 18.5q40 0 71 -12.5t52.5 -34t32.5 -51.5t11 -65q0 -41 -14.5 -79.5t-41 -69.5t-64 -49.5t-82.5 -18.5z" />
    <glyph glyph-name="guilsinglleft" unicode="&#x2039;" horiz-adv-x="357" 
d="M28 244l13 49l218 214l104 -96l-168 -163l79 -160l-141 -63z" />
    <glyph glyph-name="guilsinglright" unicode="&#x203a;" horiz-adv-x="357" 
d="M-9 121l168 164l-79 160l141 62l106 -219l-14 -48l-217 -215z" />
    <glyph glyph-name="fraction" unicode="&#x2044;" horiz-adv-x="546" 
d="M554 758h159l-695 -856h-158z" />
    <glyph glyph-name="fraction" unicode="&#x2215;" horiz-adv-x="546" 
d="M554 758h159l-695 -856h-158z" />
    <glyph glyph-name="trademark" unicode="&#x2122;" horiz-adv-x="695" 
d="M193 625h-92l20 75h270l-20 -75h-92l-62 -233h-87zM439 700h87l41 -119l105 119h95l-82 -308h-85l48 180l-111 -122h-3l-45 122l-48 -180h-84z" />
    <glyph glyph-name="radical" unicode="&#x221a;" horiz-adv-x="1137" 
d="M1015 730h190l-196 -730h-190zM536 388h-64l41 153h63l3 11q25 99 82 142t150 43q35 0 64.5 -4.5t56.5 -13.5l-35 -133q-15 5 -32.5 8.5t-31.5 3.5q-29 0 -45 -12.5t-23 -38.5l-3 -9h122l-40 -150h-118l-105 -388h-190zM118 388h-64l41 153h63l3 11q25 99 82 142t150 43
q35 0 64.5 -4.5t56.5 -13.5l-35 -133q-15 5 -32.5 8.5t-31.5 3.5q-29 0 -45 -12.5t-23 -38.5l-3 -9h122l-40 -150h-118l-105 -388h-190z" />
    <glyph glyph-name="approxequal" unicode="&#x2248;" horiz-adv-x="1137" 
d="M964 541h190l-145 -541h-190zM1012 730h198l-38 -140h-198zM536 388h-64l41 153h63l3 11q25 99 82 142t150 43q35 0 64.5 -4.5t56.5 -13.5l-35 -133q-15 5 -32.5 8.5t-31.5 3.5q-29 0 -45 -12.5t-23 -38.5l-3 -9h122l-40 -150h-118l-105 -388h-190zM118 388h-64l41 153
h63l3 11q25 99 82 142t150 43q35 0 64.5 -4.5t56.5 -13.5l-35 -133q-15 5 -32.5 8.5t-31.5 3.5q-29 0 -45 -12.5t-23 -38.5l-3 -9h122l-40 -150h-118l-105 -388h-190z" />
    <glyph glyph-name="NUL" horiz-adv-x="0" 
 />
    <glyph glyph-name="apple" horiz-adv-x="967" 
d="M417 64q0 -7 -2.5 -12t-9.5 -5q-6 0 -9 5t-3 12q0 16 12 16t12 -16zM352 64h-3q-8 0 -8 8q0 6 7 6q4 0 4 -4v-10zM553 79q4 0 0 -9q-5 9 0 9zM393 182q0 -7 -4 -7h-5q-11 0 -18.5 10t-7.5 22q0 17 14 17h6q3 -1 3.5 -1.5t2.5 -5.5zM716 187q0 -13 -11 -13q-9 0 -17 11.5
t-8 26.5q0 14 11 14q9 0 17 -11.5t8 -27.5zM275 200q-8 0 -11.5 5t-3.5 10q0 9 8 9t9 -5l3 -19h-5zM381 384q-13 0 -13 11t13 11h11v-22h-11zM684 535q0 -13 -11 -13q-9 0 -17 11.5t-8 26.5q0 14 11 14q9 0 17 -11.5t8 -27.5zM272 553q-3 -4 -7 -4t-4 2q0 3 4 3q5 0 7 -1z
M566 553q-3 -4 -7 -4t-4 2q0 3 4 3q5 0 7 -1zM171 548q-8 0 -11.5 5t-3.5 10q0 9 8 9t9 -5l3 -19h-5zM441 -88q0 13 -11 13t-11 -12q0 -13 11 -13t11 12zM800 -88q0 13 -11 13t-11 -12q0 -13 11 -13t11 12zM559 -80l-5 -12h10zM394 -83q0 8 -11 7v-13q11 0 11 6zM525 -82
q0 8 -11 6v-12q11 -1 11 6zM606 -83q0 8 -11 7v-13q11 0 11 6zM309 48q-2 0 -3 1q-3 1 -3 5v20q0 2 3 4q1 1 3 1v2h-18v-2q1 0 3 -1q3 -3 3 -4v-9q-2 0 -4 2l-8 8q-3 1 -1 3q1 1 2 1v2h-14v-2q1 0 3 -1t2.5 -1.5t2.5 -1.5l10 -9l-13 -13q-1 -1 -2 -1.5t-2 -1.5q-2 -1 -3 -2
v-2h17v2q-2 0 -3 1t1 4l8 8q2 2 4 2v-9q0 -2 -3 -5q-2 -1 -3 -1v-2h18v2zM364 48q-2 0 -3 1q-2 2 -2 4v20q0 3 2 5q1 1 3 1v2h-18q-13 0 -13 -9q0 -5 9 -9l-7 -10q-2 -2 -3.5 -2.5t-2.5 -1.5l-2 -1v-2h11l7 12q3 4 7 4v-9q0 -2 -1 -2.5t-2 -1.5t-2 -1v-2h17v2zM425 64
q0 8 -5 13t-15 5t-15 -5t-5 -13t5 -13.5t15 -5.5t15 5.5t5 13.5zM480 81h-15v-2q1 0 2 -1t-1 -4l-6 -9l-6 9q-2 2 0 4q1 1 3 1v2h-15v-2q1 0 3 -1t5 -4l8 -12v-8q0 -2 -3 -5q-1 -1 -2 -1v-2h17v2q-2 0 -3 1q-2 2 -2 5v8l8 12q1 2 2.5 2.5t2.5 1.5t2 1v2zM568 81v-2q1 0 2 -1
t0 -4l-9 -19l-5 10l4 8q1 2 2 2.5t2 1.5l2 2v2h-26l1 -2q1 0 2 -1l2 -2l3 -3l3 -5l-7 -13l-8 18q-2 3 0 5q1 1 2 1v2h-13v-2q1 0 2 -1q3 -3 4 -5l13 -27h1q1 -1 1 0l8 16l9 -16h1l12 27q1 2 2.5 3t2.5 2t2 1v2h-15zM633 48q-2 -1 -3 0q-2 0 -2 5v21q0 3 2 5h3v2h-29l-2 -10
l2 -1q0 2 2 4q2 4 7 4h4q4 0 4 -3v-10h-4q-3 0 -5 2q-1 1 -1 3h-2v-13h2q0 1 1 3q3 3 5 3h4v-11q0 -3 -4 -3h-4q-4 0 -8 4q-2 2 -2 5l-2 -1l2 -11h30v2zM694 48q-2 0 -3 1q-3 1 -3 4v20q0 2 3 4q1 1 3 2v2h-10l-24 -26v18q0 3 3 5q1 1 3 1v2h-15v-2q1 0 3 -1q3 -3 3 -5v-28
h3l25 28v-20q0 -1 -3 -4q-1 -1 -2 -1v-2h14v2zM827 133h-685v-6h685v6zM306 174q-2 0 -4 1t-3.5 2t-2.5 5l-7 35q-1 5 3 7q2 1 4 1l-1 3h-27q-20 0 -20 -15q0 -6 5.5 -10t13.5 -5l-9 -16q-2 -4 -4.5 -5t-4.5 -2q-3 -1 -5 -1l1 -3h19l12 23q1 3 5 3l3 -15q1 -5 -3 -7
q-2 -1 -4 -1l1 -3h29zM413 175q-2 -1 -4 0q-5 2 -6 9l-8 31q-3 9 8 10l-1 3h-30q-9 0 -17 -5.5t-8 -16.5q0 -16 11 -25.5t24 -9.5h32zM522 174q-1 0 -3 1q-5 2 -6 9l-7 32q-1 6 3 8q2 1 5 1l-1 3h-14l-29 -42l-5 30q-1 6 3 8q2 1 4 1l-1 3h-21l1 -3q2 0 4 -1q3 -2 5 -8
l8 -45l3 -1l30 44l6 -30q1 -7 -2 -9q-2 -1 -4 -1l1 -3h21zM620 228h-29l1 -3q2 0 4 -1q5 -2 6 -8l5 -21q2 -10 1 -15t-12 -5q-8 0 -13 6.5t-7 15.5l-4 19q-1 7 3 9q2 1 4 0v3h-24l1 -3q2 0 5 -1q5 -2 6 -8l4 -19q2 -8 8 -17.5t20 -9.5q17 0 19 8t0 16l-5 22q-2 4 -0.5 6
t3.5 3t5 0zM822 174q-2 0 -4 1t-3.5 2t-2.5 5l-7 35q-1 5 3 7q2 1 4 1l-1 3h-45v-10v-7h4q-1 3 1 6q2 7 12 7h4q5 0 6 -6l3 -16h-4q-5 0 -9 4q-2 2 -3 5h-3l5 -23h3q0 2 1 5q2 6 7 6h4l3 -17q1 -5 -3 -7q-2 -1 -4 -1l1 -3h29zM203 217q-3 5 -6.5 9t-11.5 4q-15 0 -14 -23
q-3 10 -8 16.5t-13 6.5q-5 0 -8.5 -3t-3.5 -9l3 -1q0 6 8 6q10 0 15.5 -10.5t8.5 -22.5q2 -7 1 -9.5t-3 -4.5t-4 -1l1 -4h28l-1 4q-2 -1 -4 0q-5 2 -6 9q-5 17 -5 25q0 13 9 13q5 0 7.5 -2.5l4.5 -4.5zM728 192q0 15 -11.5 26.5t-25.5 11.5q-7 0 -15 -5t-8 -17
q0 -16 11.5 -27t25.5 -11q7 0 15 5t8 17zM827 277h-685v-6h685v6zM283 341h-14v65h14v34h-141v-62h41v28h33v-20h-24v-24h24v-21h-33v28h-41v-61h141v33zM458 341h-14v65h14v34h-96q-22 0 -34.5 -11.5t-12.5 -28.5t12.5 -28.5t34.5 -11.5h30v-19h-15v-33h81v33zM648 440h-81
v-34h11l-15 -23l-15 23h10v34h-62v-34h12l37 -46v-19h-14v-33h81v33h-15v20l37 45h14v34zM827 440h-147v-62h36v28h11v-65h-14v-33h81v33h-14v65h11v-28h36v62zM827 481h-685v-6h685v6zM400 521q0 2 -3 5t-10 4q-4 3 -4.5 10.5t-2 16t-6 15t-16.5 6.5q-5 0 -9 -3.5t-4 -6.5
q0 -5 5 -5q4 0 4 6t5 6t6.5 -5t2.5 -12t3.5 -14.5t8.5 -13.5q-11 0 -14.5 -6.5t-8.5 -6.5t-5 4q0 2 1 2.5t1 2.5q0 5 -5 5t-5 -7q0 -5 5 -8.5t10 -3.5q13 0 15 6.5t10 6.5q3 -7 12 -7q4 0 4 3zM202 522q-2 0 -4 1t-3.5 2t-2.5 5l-7 35q-1 5 3 7q2 1 4 1l-1 3h-27
q-20 0 -20 -15q0 -6 5.5 -10t13.5 -5l-9 -16q-2 -4 -4.5 -5t-4.5 -2q-3 -1 -5 -1l1 -3h19l12 23q1 3 5 3l3 -15q1 -5 -3 -7q-2 -1 -4 -1l1 -3h29zM497 522q-2 0 -4 1t-3.5 2t-2.5 5l-7 35q-1 5 3 7q2 1 4 1l-1 3h-45v-10v-7h4q-1 3 1 6q2 7 12 7h4q5 0 6 -6l3 -16h-4
q-5 0 -9 4q-2 2 -3 5h-3l5 -23h3q0 2 1 5q2 6 7 6h4l3 -17q1 -5 -3 -7q-2 -1 -4 -1l1 -3h29zM820 522q-2 0 -4 1t-3.5 2t-2.5 5l-7 35q-1 5 3 7q2 1 4 1l-1 3h-28l1 -3q2 0 4 -1q4 -2 5 -7l3 -15h-24l-3 15q-1 5 3 7q2 1 4 1l-1 3h-29l1 -3q2 0 4 -1q5 -2 6 -7l7 -35
q1 -5 -3 -7q-2 -1 -4 -1l1 -3h29l-1 3q-2 0 -4 1t-3.5 2t-2.5 5l-3 16h24l3 -16q1 -5 -3 -7q-2 -1 -4 -1l1 -3h29zM295 537q0 12 -14 17q5 3 5 9q0 5 -5 10t-16 5q-13 0 -13 -11q0 -6 5 -6q4 0 4 3t-1.5 3.5t-1.5 2.5q0 5 7 5q10 0 10 -12q0 -4 -2 -6q-16 2 -16 -6
q0 -6 8 -6q6 0 11 5q6 -5 6 -15q0 -14 -12 -14t-12 9q0 3 3 3q1 0 2 -1t3 -1q4 0 4 5t-7 5q-9 0 -9 -10q0 -13 16 -13q13 0 19 5.5t6 13.5zM589 537q0 12 -14 17q5 3 5 9q0 5 -5 10t-16 5q-13 0 -13 -11q0 -6 5 -6q4 0 4 3t-1.5 3.5t-1.5 2.5q0 5 7 5q10 0 10 -12
q0 -4 -2 -6q-16 2 -16 -6q0 -6 8 -6q6 0 11 5q6 -5 6 -15q0 -14 -12 -14t-12 9q0 3 3 3q1 0 2 -1t3 -1q4 0 4 5t-7 5q-9 0 -9 -10q0 -13 16 -13q13 0 19 5.5t6 13.5zM696 540q0 15 -11.5 26.5t-25.5 11.5q-7 0 -15 -5t-8 -17q0 -16 11.5 -27t25.5 -11q7 0 15 5t8 17z
M827 624h-685v-6h685v6zM439 664q-2 -1 -3 0q-2 0 -2 5v21q0 3 2 5h3v2h-29l-2 -10l2 -1q0 2 2 4q2 4 7 4h4q4 0 4 -3v-10h-4q-3 0 -5 2q-1 1 -1 3h-2v-13h2q0 1 1 3q3 3 5 3h4v-11q0 -3 -4 -3h-4q-4 0 -8 4q-2 2 -2 5l-2 -1l2 -11h30v2zM504 664q-2 -1 -3 0q-3 0 -3 5v21
q0 3 3 5h3v2h-18v-1v-1h2q3 -3 3 -5v-9h-17v9q0 3 2 5h3v1v1h-17v-2h2q3 -3 3 -5v-21q0 -2 -1 -2.5t-2 -1.5t-2 -1v-2h17v2q-2 0 -3 1q-2 2 -2 4v10h17v-10q0 -5 -3 -5q-1 -1 -2 0v-2h18v2zM559 686v4q0 2 -0.5 4t-0.5 4q-2 -1 -17 -1t-18 1q0 -2 -0.5 -4t-0.5 -4v-4h2
q1 2 3 4q5 5 7 5q3 0 3 -3v-23q0 -5 -3 -5q-1 -1 -2 0v-2h17v2q-2 -1 -3 0q-2 0 -2 5v23q0 3 3 3t8 -5q2 -2 2 -4h2zM284 -101q0 -4 -4 -4t-4 4t4 4t4 -4zM716 -101q0 -4 -4 -4t-4 4t4 4t4 -4zM143 -105h-1l-11 23l-10 -23h-1l-12 34l6 1l7 -23l10 23h1l10 -23l7 22h6z
M199 -105h-1l-11 23l-10 -23h-1l-12 34l6 1l7 -23l10 23h1l10 -23l7 22h6zM255 -105h-1l-11 23l-10 -23h-1l-12 34l6 1l7 -23l10 23h1l10 -23l7 22h6zM323 -76h-12v-28h-6v28h-12v5h30v-5zM351 -90v-14h-6v14l-14 19l6 1l11 -15l9 14h7zM400 -82q0 -12 -17 -12v-10h-6v33
q14 2 18.5 -2t4.5 -9zM447 -87q0 -8 -4.5 -13t-12.5 -5t-12.5 5t-4.5 12q0 8 5 13t13 5q7 0 11.5 -5t4.5 -12zM491 -101q-6 -4 -13 -4q-8 0 -13 4.5t-5 12.5t5.5 13t13.5 5q6 0 12 -4l-2 -5q-4 4 -11 4q-12 0 -12 -13q0 -12 13 -12q2 0 6 2v7h-9v5h15v-15zM527 -104l-8 11
h-5v-11h-6v33q14 2 18.5 -1.5t4.5 -8.5q0 -7 -7 -10l10 -13h-7zM570 -104l-4 8h-14l-3 -8h-6l15 34h2l16 -34h-6zM612 -82q0 -12 -17 -12v-10h-6v33q14 2 18.5 -2t4.5 -9zM650 -104v15h-16v-15h-6v33h6v-13h16v13h6v-33h-6zM689 -90v-14h-6v14l-14 19l6 1l11 -15l9 14h7z
M757 -102q-3 -3 -10 -3q-18 0 -18 17q0 8 5 13t13 5q6 0 11 -3l-2 -5q-3 3 -9 3q-5 0 -8.5 -3.5t-3.5 -8.5q0 -13 13 -13q4 0 10 4zM806 -87q0 -8 -4.5 -13t-12.5 -5t-12.5 5t-4.5 12q0 8 5 13t13 5q7 0 11.5 -5t4.5 -12zM853 -104l-3 20l-10 -21h-2l-10 21l-3 -20h-6l6 34
h1l13 -26l13 26h1l6 -34h-6zM101 0v750h767v-750h-767z" />
  </font>
</defs>
</svg>
